Band Baaja Babuchak (2017) Gujarati 1080p WeB-DL AAC MP4 - DTOne

 Band Baaja Babuchak (2017) Gujarati 1080p WeB-DL AAC MP4 - DTOne

ec7ad13292cec3b5a9dc3086ef8fb135.jpg



Format                                   : Matroska
Format version                           : Version 4 / Version 2
File size                                : 5.31 GiB
Duration                                 : 2 h 5 min
Overall bit rate                         : 6 042 kb/s
Encoded date                             : UTC 2018-07-26 21:19:03
Writing application                      : mkvmerge v25.0.0 ('Prog Noir') 64-bit
Writing library                          : libebml v1.3.6 + libmatroska v1.4.9

Video
ID                                       : 1
Format                                   : AVC
Format/Info                              : Advanced Video Codec
Format profile                           : High@L4
Format settings                          : CABAC / 4 Ref Frames
Format settings, CABAC                   : Yes
Format settings, ReFrames                : 4 frames
Format settings, GOP                     : M=4, N=30
Codec ID                                 : V_MPEG4/ISO/AVC
Duration                                 : 2 h 5 min
Bit rate                                 : 5 873 kb/s
Width                                    : 1 920 pixels
Height                                   : 1 080 pixels
Display aspect ratio                     : 16:9
Frame rate mode                          : Constant
Frame rate                               : 24.000 FPS
Color space                              : YUV
Chroma subsampling                       : 4:2:0
Bit depth                                : 8 bits
Scan type                                : Progressive
Bits/(Pixel*Frame)                       : 0.118
Stream size                              : 5.14 GiB (97%)
Writing library                          : x264 core 133 r2 a3ac64b
Default                                  : Yes
Forced                                   : No

Audio
ID                                       : 2
Format                                   : AAC
Format/Info                              : Advanced Audio Codec
Format profile                           : LC
Codec ID                                 : A_AAC-2
Duration                                 : 2 h 5 min
Bit rate                                 : 192 kb/s
Channel(s)                               : 2 channels
Channel positions                        : Front: L R
Sampling rate                            : 48.0 kHz
Frame rate                               : 46.875 FPS (1024 SPF)
Compression mode                         : Lossy
Delay relative to video                  : -43 ms
Stream size                              : 175 MiB (3%)
Default                                  : Yes
Forced                                   : No




|| Download This Movie Via Single Resumable Links Size: 5.31 GB ||

Direct-1 Google Drive | Direct-2 | Direct-3 |

Watch Online Click Here

Post a Comment

0 Comments