Bang Bang (2014) Hindi 720p BluRay mHD x264 AC3 DD 5.1 -NhaNc3


Poster
9fabe9493f8b75f60e91d91be893525f.jpg


iMDB
Imdb Picture Title: Bang Bang
Year: 2014
Runtime: 153 minutes
Votes: 17700
Rating: 5.5/10
Language: Hindi, Telugu, Tamil
Country: India
All Genres: Action, Adventure, Comedy, Romance, Thriller
Plot Outline: A young bank receptionist gets mixed up with Rajveer Nanda, a man who has a mysterious background.
Director: Siddharth Anand
Writing By: Sujoy Ghosh,Suresh Nair,Patrick O'Neill,Abbas Tyrewala,
Produced By: Parth Arora,Paul W. Baker,Armit Chhabra,Neerja Narayanan,Sheel Nimbalkar,Kenton Oxley,Prashant Shah,Navmeet Singh,
Music: Vishal Dadlani Shekhar Ravjiani
Plot:
A chance encounter of the unassuming bank receptionist Harleen Sahni with the charming yet mysterious Rajveer Nanda, results in an on-rush of ditched planes, car chases, shoot-outs, bombing raids and general global mayhem. But as the transcontinental chase ensues with Rajveer convincing Harleen that he's the good guy, can she really trust him, and will trust matter when the bullets start flying?
- Written by Production
A young bank receptionist gets mixed up with Rajveer Nanda, a man who has a mysterious background.
- Written by Aravind R.
Cast:
Hrithik Roshan as Rajveer Nanda
Katrina Kaif as Harleen Sahani
Pavan Malhotra as Zorawar Kalwa
Danny Denzongpa as Omar Zafar
Javed Jaffrey as Hamid Gul
Jimmy Shergill as Colonel Viren Nanda
Vikram Gokhale as ISS Chief Narayanan
Kanwaljit Singh as Rajveer's Father
Deepti Naval as Rajveer's Mother
Kamlesh Gill as Dadi, Harleen's grandmother
Trailers:
Trailer #1


Details
Name:Bang Bang (2014) Hindi 720p BluRay mHD x264 AC3 DD 5.1 -NhaNc3
Description:
Bang Bang (2014) Hindi 720p BluRay mHD x264 AC3 DD 5.1 -NhaNc3

9fabe9493f8b75f60e91d91be893525f.jpg

Format                                   : Matroska
Format version                           : Version 2
File size                                : 3.03 GiB
Duration                                 : 2 h 33 min
Overall bit rate                         : 2 821 kb/s
Encoded date                             : UTC 2014-12-14 22:45:23
Writing application                      : mkvmerge v4.9.1 ('Ich will') built on Jul 11 2011 23:53:15
Writing library                          : libebml v1.2.1 + libmatroska v1.1.1

Video
ID                                       : 1
Format                                   : AVC
Format/Info                              : Advanced Video Codec
Format profile                           : High@L4.1
Format settings                          : CABAC / 8 Ref Frames
Format settings, CABAC                   : Yes
Format settings, ReFrames                : 8 frames
Codec ID                                 : V_MPEG4/ISO/AVC
Duration                                 : 2 h 33 min
Bit rate                                 : 2 432 kb/s
Width                                    : 1 280 pixels
Height                                   : 544 pixels
Display aspect ratio                     : 2.35:1
Frame rate mode                          : Constant
Frame rate                               : 24.000 FPS
Color space                              : YUV
Chroma subsampling                       : 4:2:0
Bit depth                                : 8 bits
Scan type                                : Progressive
Bits/(Pixel*Frame)                       : 0.146
Stream size                              : 2.56 GiB (84%)
Writing library                          : x264 core 130 r2273 b3065e6
Language                                 : English
Default                                  : Yes
Forced                                   : No
Color range                              : Limited
Color primaries                          : BT.709
Transfer characteristics                 : BT.709
Matrix coefficients                      : BT.709

Audio
ID                                       : 2
Format                                   : AC-3
Format/Info                              : Audio Coding 3
Codec ID                                 : A_AC3
Duration                                 : 2 h 33 min
Bit rate mode                            : Constant
Bit rate                                 : 384 kb/s
Channel(s)                               : 6 channels
Channel positions                        : Front: L C R, Side: L R, LFE
Sampling rate                            : 48.0 kHz
Frame rate                               : 31.250 FPS (1536 SPF)
Bit depth                                : 16 bits
Compression mode                         : Lossy
Stream size                              : 422 MiB (14%)
Language                                 : English
Service kind                             : Complete Main
Default                                  : Yes
Forced                                   : Yes

Text
ID                                       : 3
Format                                   : VobSub
Codec ID                                 : S_VOBSUB
Codec ID/Info                            : Picture based subtitle format used on DVDs
Title                                    : Track 1 [DDR]
Language                                 : English
Default                                  : Yes
Forced                                   : No

Menu
00:00:00.000                             : :00:00:00.000
00:10:14.958                             : :00:10:14.958
00:16:18.833                             : :00:16:18.833
00:20:37.458                             : :00:20:37.458
00:28:01.458                             : :00:28:01.458
00:36:13.000                             : :00:36:13.000
00:40:29.458                             : :00:40:29.458
00:51:11.792                             : :00:51:11.792
00:54:30.667                             : :00:54:30.667
01:04:34.208                             : :01:04:34.208
01:11:29.375                             : :01:11:29.375
01:17:36.542                             : :01:17:36.542
01:33:13.625                             : :01:33:13.625
01:38:23.375                             : :01:38:23.375
01:49:13.792                             : :01:49:13.792
01:55:24.708                             : :01:55:24.708
02:04:59.250                             : :02:04:59.250
02:16:36.250                             : :02:16:36.250
02:18:16.792                             : :02:18:16.792
02:29:42.708                             : :02:29:42.708

94de6612b33662275c95aa58e7df4277.jpg
Category:Movies > Bollywood
Lang:Hindi
Total Size:3.03 GB





|| Download This Movie Via Single Resumable Links Size: 3.03 GB ||

Direct-1 Google Drive | Direct-2 | Direct-3 |

Watch Online Click Here

Post a Comment

0 Comments