Barfi! (2012) Hindi 720p BluRay mHD x264 AC3 DD 5.1 -NhaNc3


Poster
8d05b2ed743e49f0d54022f41d7a2c00.jpg


iMDB
Imdb Picture Title: Barfi!
Year: 2012
Runtime: 151 minutes
Votes: 59147
Rating: 8.1/10
Language: Hindi
Country: India
All Genres: Adventure, Comedy, Drama, Romance
Plot Outline: Three young people learn that love can neither be defined nor contained by society's definition of normal and abnormal.
Director: Anurag Basu
Writing By: Anurag Basu,Tani Basu,Sanjeev Dutta,
Produced By: Siddharth Roy Kapur,Rucha Pathak,Ronnie Screwvala,Shubh Shivdasani,
Music: Pritam Chakraborty
Plot:
Set in the 1970s in a pretty corner of India, Barfi! is the story of three young people who learn that love can neither be defined nor contained by society's norms of normal and abnormal. Barfi, a hearing and speech impaired boy falls in love with Shruti. In spite of her deep affection for Barfii, Shruti gives into societal and parental pressure to marry a 'normal' man and lead a 'normal' life. Many years later their paths cross once again when Barfi, now in love with Jhilmil, is on the run from the police. Barfi is desperately seeking Jhilmil, who has gone missing. Shruti's realization that Jhilmil is autistic makes her recognize that true love is really blind. Caught in a cat and mouse game, in the search for the girl Barfi loves, Shruti realizes that she is still in love with him. She must now choose between her happiness and Barfi! stars three of India's most loved young stars, all essaying roles of a lifetime. The uber cool Ranbir Kapoor plays the lead role of Barfi!, the very talented Priyanka Chopra takes on the challenge of playing Jhilmil and South star Ileana makes her Hindi debut as Shruti. This season, don't worry, be Barfi!
- Written by Mohijit Mukerjee
Three young people learn that love can neither be defined nor contained by society's definition of normal and abnormal.
- Written by Mohijit Mukerjee
Cast:
Ranbir Kapoor as Barfii
Priyanka Chopra as Jhilmil Chatterjee
Ileana D'Cruz as Shruti Sengupta
Saurabh Shukla as Sudhanshu Dutta
Rupa Ganguly as Shruti's Mother
Ashish Vidyarthi as Mr. Chatterjee
Bholaraj Sapkota as Bhola
Jishu Sengupta as Ranjeet Sengupta
Haradhan Bannerjee as Daju
Akash Khurana as Jangbahadur
Trailers:
U.S. Theatrical Version

Details
Name:Barfi! (2012) Hindi 720p BluRay mHD x264 AC3 DD 5.1 -NhaNc3
Description:
Barfi! (2012) Hindi 720p BluRay mHD x264 AC3 DD 5.1 -NhaNc3 


c44668a998c83a72d4b3bf860a1cf73b.jpg


Format                                   : Matroska
Format version                           : Version 2
File size                                : 3.03 GiB
Duration                                 : 2 h 31 min
Overall bit rate                         : 2 870 kb/s
Encoded date                             : UTC 2012-12-18 14:00:38
Writing application                      : mkvmerge v4.8.0 ('I Got The...') built on May 24 2011 03:12:58
Writing library                          : libebml v1.2.0 + libmatroska v1.1.0

Video
ID                                       : 1
Format                                   : AVC
Format/Info                              : Advanced Video Codec
Format profile                           : High@L4.1
Format settings                          : CABAC / 8 Ref Frames
Format settings, CABAC                   : Yes
Format settings, ReFrames                : 8 frames
Codec ID                                 : V_MPEG4/ISO/AVC
Duration                                 : 2 h 31 min
Bit rate                                 : 2 485 kb/s
Width                                    : 1 280 pixels
Height                                   : 544 pixels
Display aspect ratio                     : 2.35:1
Frame rate mode                          : Constant
Frame rate                               : 24.000 FPS
Color space                              : YUV
Chroma subsampling                       : 4:2:0
Bit depth                                : 8 bits
Scan type                                : Progressive
Bits/(Pixel*Frame)                       : 0.149
Stream size                              : 2.56 GiB (85%)
Writing library                          : x264 core 128 r2216 198a7ea
Encoding settings                        : cabac=1 / ref=8 / deblock=1:0:0 / analyse=0x3:0x113 / me=umh / subme=9 / psy=1 / psy_rd=1.00:0.00 / mixed_ref=1 / me_range=16 / chroma_me=1 / trellis=1 / 8x8dct=1 / cqm=0 / deadzone=21,11 / fast_pskip=1 / chroma_qp_offset=-2 / threads=12 / lookahead_threads=2 / sliced_threads=0 / nr=0 / decimate=1 / interlaced=0 / bluray_compat=0 / constrained_intra=0 / bframes=5 / b_pyramid=2 / b_adapt=1 / b_bias=0 / direct=1 / weightb=1 / open_gop=0 / weightp=2 / keyint=250 / keyint_min=24 / scenecut=40 / intra_refresh=0 / rc_lookahead=40 / rc=2pass / mbtree=1 / bitrate=2485 / ratetol=1.0 / qcomp=0.60 / qpmin=0 / qpmax=69 / qpstep=4 / cplxblur=20.0 / qblur=0.5 / vbv_maxrate=20000 / vbv_bufsize=15000 / nal_hrd=none / ip_ratio=1.40 / aq=1:1.00
Language                                 : English
Default                                  : Yes
Forced                                   : No
Color range                              : Limited
Color primaries                          : BT.709
Transfer characteristics                 : BT.709
Matrix coefficients                      : BT.709

Audio
ID                                       : 2
Format                                   : AC-3
Format/Info                              : Audio Coding 3
Codec ID                                 : A_AC3
Duration                                 : 2 h 31 min
Bit rate mode                            : Constant
Bit rate                                 : 384 kb/s
Channel(s)                               : 6 channels
Channel positions                        : Front: L C R, Side: L R, LFE
Sampling rate                            : 48.0 kHz
Frame rate                               : 31.250 FPS (1536 SPF)
Bit depth                                : 16 bits
Compression mode                         : Lossy
Stream size                              : 415 MiB (13%)
Language                                 : English
Service kind                             : Complete Main
Default                                  : Yes
Forced                                   : Yes

Text
ID                                       : 3
Format                                   : UTF-8
Codec ID                                 : S_TEXT/UTF8
Codec ID/Info                            : UTF-8 Plain Text
Title                                    : Barfi(2012) ~ DSTAdmirer ~ TeamDST
Language                                 : English
Default                                  : Yes
Forced                                   : No



a4ca28a4992c76dd66e95e2330c04996.jpg
Category:Movies > Bollywood
Lang:Hindi
Total Size:3.03 GB



|| Download This Movie Via Single Resumable Links Size: 3.03 GB ||

Direct-1 Google Drive | Direct-2 | Direct-3 |

Watch Online Click Here

Post a Comment

0 Comments