Beyond The Clouds (2018) Hindi 720p DVDRip - x264 - AC3 DD 5.1 - 1.4GB - ESubs


Poster
78e2deddf7e9dd137236e2130fd6abcd.jpg


iMDB
Imdb Picture Title: Beyond the Clouds
Year: 2017
Runtime: 120 minutes
Votes: 297
Rating: 6.9/10
Language: English, Hindi
Country: India, Iran
All Genres: Drama, Family
Plot Outline: Teenager Amir is constantly dodging trouble while dealing drugs in the underbelly of Mumbai. Following a drug bust, he evades the cops and ends up on the doorstep of his estranged sister Tara. Complications from concealing Amir land Tara in jail, but she still sees her brother as her only hope of living in the outside world again. While their lives have been darkened by despair, hope may shine from beyond the clouds. Written by Anonymous
Director: Majid Majidi
Writing By: Mehran Kashani,Majid Majidi,
Produced By: Kishor Arora,Shareen Mantri Kedia,Kanwal Kohli,Angarika Mantri,Reza Tashakkori,Ajay R. Yadav,
Music: A.R. Rahman
Cast:
Malavika Mohanan as Tara
Tannishtha Chatterjee as Chotu's Mother
Ishaan Khattar as Amir
Sharada as Pati (Akshi's Mother)
Goutam Ghose as Akshi
Satyajeet Rajput as Boss
Mia Maelzer as Jail Inmate
Dwani Rajesh as
Heeba Shah as
Shashank Shende as Rahul
Trailers:
Beyond the clouds Official Trailer

Details
Name:Beyond The Clouds (2018) Hindi 720p DVDRip - x264 - AC3 DD 5.1 - 1.4GB - ESubs
Description:
 Beyond The Clouds (2018) Hindi 720p DVDRip - x264 - AC3 DD 5.1 - 1.4GB - ESubs
53d9dd5feb6c175fb263cbb547b10c6c.jpg

Format                                   : Matroska
Format version                           : Version 4 / Version 2
File size                                : 1.43 GiB
Duration                                 : 2 h 01 min
Overall bit rate                         : 1 681 kb/s

Video
ID                        : 1
Format                        : AVC
Format/Info                        : Advanced Video Codec
Format profile                        : High@L4
Format settings                        : CABAC / 5 Ref Frames
Format settings, CABAC                        : Yes
Format settings, ReFrames                        : 5 frames
Codec ID                        : V_MPEG4/ISO/AVC
Duration                        : 2 h 1 min
Bit rate                        : 1 474 kb/s
Width                        : 1 280 pixels
Height                        : 648 pixels
Display aspect ratio                        : 1.975
Frame rate mode                        : Constant
Frame rate                        : 23.976 FPS
Color space                        : YUV
Chroma subsampling                        : 4:2:0
Bit depth                        : 8 bits
Scan type                        : Progressive
Bits/(Pixel*Frame)                        : 0.074
Stream size                        : 1.24 GiB (87%)
Writing library                        : x264 core 155 r2901 7d0ff22
Language                        : Hindi
Default                        : Yes
Forced                        : No
Color range                        : Limited
Color primaries                        : BT.601 NTSC
Transfer characteristics                        : BT.709
Matrix coefficients                        : BT.601

Audio
ID                        : 2
Format                        : AC-3
Format/Info                        : Audio Coding 3
Codec ID                        : A_AC3
Duration                        : 2 h 1 min
Bit rate mode                        : Constant
Bit rate                        : 224 kb/s
Channel(s)                        : 6 channels
Channel positions                        : Front: L C R, Side: L R, LFE
Sampling rate                        : 48.0 kHz
Frame rate                        : 31.250 FPS (1536 SPF)
Bit depth                        : 16 bits
Compression mode                        : Lossy
Stream size                        : 195 MiB (13%)
Language                        : Hindi
Service kind                        : Complete Main
Default                        : Yes
Forced                        : No

Text
ID                        : 3
Format                        : VobSub
Muxing mode                        : zlib
Codec ID                        : S_VOBSUB
Codec ID/Info                        : Picture based subtitle format used on DVDs
Duration                        : 1 h 51 min
Bit rate                        : 1 765 b/s
Count of elements                        : 702
Stream size                        : 1.41 MiB (0%)
Language                        : Hindi
Default                        : Yes
Forced                        : Yes 


SCREENSHOTS
Click on image to view full size
735dd0d7138e4e390956d15667e14c90.th.jpge0301823dc02786c6afcfea180da78a6.th.jpg581c34e04628858c7be843d62aef7d8f.th.jpgce37e4d0ad865ee2888eef37f7ed6634.th.jpgae50ff83121ea7c0a791fe23b4fd6ab0.th.jpg581cfa57a4f0bbfc8d1b4951c30326c6.th.jpg
Category:Movies > Bollywood
Lang:Hindi
Total Size:1.43 GB



|| Download This Movie Via Single Resumable Links Size: 1.43 GB ||

Direct-1 Google Drive | Direct-2 | Direct-3 |

Watch Online Click Here

Post a Comment

0 Comments