Chalo Jeete Hain (2018) Hindi 720p WEB-HD x264 AAC 450MB


Poster
0b3f199a13719a542c09aab7cf353a30.jpg



Details
Name:Chalo Jeete Hain (2018) Hindi 720p WEBHD x264 AAC 450MB
Description:
Chalo Jeete Hain (2018) Hindi 720p WEBHD x264 AAC 450MB
 

Format                                   : Matroska
Format version                           : Version 4 / Version 2
File size                                : 456 MiB
Duration                                 : 31 min 1 s
Overall bit rate                         : 2 057 kb/s


Video
ID                                       : 1
Format                                   : AVC
Format/Info                              : Advanced Video Codec
Format profile                           : Main@L3.1
Format settings                          : CABAC / 1 Ref Frames
Format settings, CABAC                   : Yes
Format settings, RefFrames               : 1 frame
Codec ID                                 : V_MPEG4/ISO/AVC
Duration                                 : 31 min 1 s
Bit rate mode                            : Constant
Bit rate                                 : 2 000 kb/s
Width                                    : 1 280 pixels
Height                                   : 720 pixels
Display aspect ratio                     : 16:9
Frame rate mode                          : Constant
Frame rate                               : 25.000 FPS
Color space                              : YUV
Chroma subsampling                       : 4:2:0
Bit depth                                : 8 bits
Scan type                                : Progressive
Bits/(Pixel*Frame)                       : 0.087
Stream size                              : 442 MiB (97%)
Default                                  : Yes
Forced                                   : No

Audio
ID                                       : 2
Format                                   : AAC
Format/Info                              : Advanced Audio Codec
Format profile                           : LC
Codec ID                                 : A_AAC-2
Duration                                 : 31 min 1 s
Bit rate                                 : 61.4 kb/s
Channel(s)                               : 2 channels
Channel positions                        : Front: L R
Sampling rate                            : 48.0 kHz
Frame rate                               : 46.875 FPS (1024 SPF)
Compression mode                         : Lossy
Delay relative to video                  : -33 ms
Stream size                              : 13.6 MiB (3%)
Language                                 : Hindi
Default                                  : Yes
Forced                                   : No


 
 
 
 
 
 
 
Category:Movies > Bollywood
Lang:Hindi
Total Size:456.37 MB



|| Download This Tv Show Via Single Resumable Links Size: 456 MB ||

Direct-1 Google Drive | Direct-2 | Direct-3 |

Watch Online Click Here

Post a Comment

0 Comments