Deadpool 2 (2018) BluRay 720p x264 Dual Audio [Hindi DD5.1 - English DD5.1] - Esub ~ Ranvijay


Poster


iMDB
Imdb Picture Title: Deadpool 2
Year: 2018
Runtime: 119 minutes
Votes: 11154
Rating: 8.5/10
Language: English
Country: USA
All Genres: Action, Adventure, Comedy, Sci-Fi
Plot Outline: After surviving a near fatal bovine attack, a disfigured cafeteria chef (Wade Wilson) struggles to fulfill his dream of becoming Mayberry's hottest bartender while also learning to cope with his lost sense of taste. Searching to regain his spice for life, as well as a flux capacitor, Wade must battle ninjas, the Yakuza, and a pack of sexually aggressive canines, as he journeys around the world to discover the importance of family, friendship, and flavor - finding a new taste for adventure and earning the coveted coffee mug title of World's Best Lover. Written by Twentieth Century Fox
Tagline: Prepare for the second coming.
Director: David Leitch
Writing By: Rhett Reese,Paul Wernick,Ryan Reynolds,Rob Liefeld,Fabian Nicieza,
Produced By: Simon Kinberg,Stan Lee,Jonathon Komack Martin,Kelly McCormick,Rhett Reese,Ryan Reynolds,Lauren Shuler Donner,Ethan Smith,Aditya Sood,Paul Wernick,
Music: Tyler Bates
Cast:
Josh Brolin as Nathan Summers / Cable
Ryan Reynolds as Wade / Deadpool
Morena Baccarin as Vanessa
Zazie Beetz as Domino
Brianna Hildebrand as Negasonic Teenage Warhead
Brad Pitt as Vanisher
Bill SkarsgÄrd as Zeitgeist
T.J. Miller as Weasel
Terry Crews as Bedlam
Rob Delaney as Peter
Trailers:
The Final Trailer
Official Trailer
Deadpool, Meet Cable - Trailer
Official Teaser
Deadpool 2

Details
Name:Deadpool 2 (2018) BluRay 720p x264 Dual Audio [Hindi DD5.1 - English DD5.1] - Esub ~ Ranvijay
Description:
Deadpool 2 (2018) Super Duper Cut 720p BluRay x264 Dual Audio [Hindi DD5.1 - English DD5.1] - Esub ~ Ranvijay 
 General
Format                                   : Matroska
Format version                           : Version 4 / Version 2
File size                                : 1.81 GiB
Duration                                 : 2 h 13 min
Overall bit rate                         : 1 934 kb/s
Movie name                               : Deadpool 2 (2018) Super Duper Cut 720p BluRay x264 Dual Audio [Hindi DD5.1 - English DD5.1] - Msubs ~ Ranvijay

Video
ID                                       : 1
Format                                   : AVC
Format/Info                              : Advanced Video Codec
Duration                                 : 2 h 13 min
Bit rate                                 : 1 237 kb/s
Width                                    : 1 280 pixels
Height                                   : 536 pixels
Display aspect ratio                     : 2.40:1
Frame rate mode                          : Constant
Frame rate                               : 23.976 (24000/1001) FPS
Color space                              : YUV
Chroma subsampling                       : 4:2:0
Bit depth                                : 8 bits
Scan type                                : Progressive
Bits/(Pixel*Frame)                       : 0.075
Stream size                              : 1.16 GiB (64%)
Title                                    : ~Ranvijay~

Audio #1
ID                                       : 2
Format                                   : AC-3
Format/Info                              : Audio Coding 3
Codec ID                                 : A_AC3
Duration                                 : 2 h 13 min
Bit rate mode                            : Constant
Bit rate                                 : 448 kb/s
Channel(s)                               : 6 channels
Channel positions                        : Front: L C R, Side: L R, LFE
Sampling rate                            : 48.0 kHz
Frame rate                               : 31.250 FPS (1536 SPF)
Bit depth                                : 16 bits
Compression mode                         : Lossy
Stream size                              : 429 MiB (23%)
Title                                    : ~Ranvijay~
Language                                 : Hindi
Service kind                             : Complete Main
Default                                  : Yes
Forced                                   : No

Audio #2
ID                                       : 3
Format                                   : AC-3
Format/Info                              : Audio Coding 3
Codec ID                                 : A_AC3
Duration                                 : 2 h 13 min
Bit rate mode                            : Constant
Bit rate                                 : 224 kb/s
Channel(s)                               : 6 channels
Channel positions                        : Front: L C R, Side: L R, LFE
Sampling rate                            : 48.0 kHz
Frame rate                               : 31.250 FPS (1536 SPF)
Bit depth                                : 16 bits
Compression mode                         : Lossy
Stream size                              : 215 MiB (12%)
Title                                    : ~Ranvijay~
Language                                 : English
Service kind                             : Complete Main
Default                                  : No
Forced                                   : No

Text #1
ID                                       : 4
Format                                   : UTF-8
Codec ID                                 : S_TEXT/UTF8
Codec ID/Info                            : UTF-8 Plain Text
Duration                                 : 2 h 13 min
Bit rate                                 : 71 b/s
Count of elements                        : 2426
Stream size                              : 69.3 KiB (0%)
Title                                    : ~Ranvijay~
Language                                 : English
Default                                  : No
Forced                                   : No

Text #2
ID                                       : 5
Format                                   : UTF-8
Codec ID                                 : S_TEXT/UTF8
Codec ID/Info                            : UTF-8 Plain Text
Duration                                 : 2 h 11 min
Bit rate                                 : 62 b/s
Count of elements                        : 2126
Stream size                              : 60.5 KiB (0%)
Title                                    : ~Ranvijay~
Language                                 : English
Default                                  : No
Forced                                   : No

Text #3
ID                                       : 6
Format                                   : PGS
Muxing mode                              : zlib
Codec ID                                 : S_HDMV/PGS
Codec ID/Info                            : Picture based subtitle format used on BDs/HD-DVDs
Duration                                 : 52 min 55 s
Bit rate                                 : 117 b/s
Count of elements                        : 8
Stream size                              : 45.5 KiB (0%)
Title                                    : ~Ranvijay~
Language                                 : English
Default                                  : No
Forced                                   : No

Text #4
ID                                       : 7
Format                                   : PGS
Muxing mode                              : zlib
Codec ID                                 : S_HDMV/PGS
Codec ID/Info                            : Picture based subtitle format used on BDs/HD-DVDs
Duration                                 : 2 h 11 min
Bit rate                                 : 39.4 kb/s
Count of elements                        : 3752
Stream size                              : 37.1 MiB (2%)
Title                                    : ~Ranvijay~
Default                                  : No
Forced                                   : No

Text #5
ID                                       : 8
Format                                   : PGS
Muxing mode                              : zlib
Codec ID                                 : S_HDMV/PGS
Codec ID/Info                            : Picture based subtitle format used on BDs/HD-DVDs
Duration                                 : 2 h 13 min
Bit rate                                 : 31.3 kb/s
Count of elements                        : 3868
Stream size                              : 29.8 MiB (2%)
Title                                    : ~Ranvijay~
Language                                 : Hindi
Default                                  : Yes
Forced                                   : No
GvhdE.th.jpg GvTCd.th.jpg Gvfvv.th.jpg Gvqot.th.jpg Gvdr9.th.jpg GvGw8.th.jpg GvM1J.th.jpg GveAD.th.jpg
Category:Movies > Hollywood Dub
Lang:Hindi
Total Size:1.83 GB





|| Download This Movie Via Single Resumable Links Size: 1.81 GB ||

Direct-1 Google Drive | Direct-2 | Direct-3 |

Watch Online Click Here

Post a Comment

0 Comments