Crazy World Only 4 You

Sorry For The Inconvenience. If You are facing link dead or no google drive file access then inform us via comment

Latest Updates

Monday, 23 July 2018

Doctor X Complet Season 2 Hindi 1080p WEB-DL AVC DD 2.0 Team Jio Exclusive


Poster
w1q4gmk.jpg


iMDB
Imdb Picture Original Title: Doctor X ~ Gekai Daimon Michiko ~
Title: Doctor X
Year: 2012
Runtime: 54 minutes
Votes: 153
Rating: 7.7/10
Language: Japanese
Country: Japan
All Genres: Comedy, Drama, Mystery
Plot Outline: Daimon Michiko is a 37-year-old freelance surgeon who is part of a questionable "doctor placement service" that has her wander from hospital to hospital. The harsh environment at the ...
Director: Naoki Tamura
Hidetomo Matsuda
Hayato Yamada
Writing By: Makoto Hayashi,Masato Hayashi,Takafumi Kôsaka,Miho Nakazono,Aya Takei,Toshio Terada,Manabu Uda,
Produced By: Kazuho Ohgaki,Kazuhisa Shimoda,Seiko Uchiyama,Sadako Ikeda,Tatsuki Ôe,Seiichi Koga,Kimiko Nishikawa,Ayumi Tsuzuki,Ayumi Mineshima,Hiroyuki Kikuchi,Yuko Takahashi,
Music: Kan Sawada
Cast:
Ryôko Yonekura as Daimon Michiko 49 episodes, 2012-2017
Tomorô Taguchi as Narration 49 episodes, 2012-2017
Ittoku Kishibe as Dr. Kambara 49 episodes, 2012-2017
Yuki Uchida as Dr. Jônouchi 47 episodes, 2012-2017
Toshiyuki Nishida as Dr. Hiruma 41 episodes, 2013-2017
Masanobu Katsumura as Dr. Kaji 32 episodes, 2012-2017
Ken'ichi Endô as Dr. Ebina 30 episodes, 2013-2017
Kôsuke Suzuki as Dr. Hara 30 episodes, 2012-2017
Shirô Itô as Busujima Ryunosuke 20 episodes, 2012-2014
Kei Tanaka as Dr. Morimoto 19 episodes, 2012-2017



Details
Name:Doctor X Season 2 [Hindi] 1080p WEBDL AVC DD 2.0 Team Jio Exclusive
Description:



Format                                   : MPEG-4
Format profile                           : Base Media
Codec ID                                 : isom (isom/iso2/avc1/mp41)
File size                                : 1.31 GiB
Duration                                 : 1 h 0 min
Overall bit rate                         : 3 109 kb/s
Writing application                      : Lavf56.40.101

Video
ID                                       : 1
Format                                   : AVC
Format/Info                              : Advanced Video Codec
Format profile                           : High@L4
Format settings                          : CABAC / 4 Ref Frames
Format settings, CABAC                   : Yes
Format settings, ReFrames                : 4 frames
Codec ID                                 : avc1
Codec ID/Info                            : Advanced Video Coding
Duration                                 : 1 h 0 min
Bit rate                                 : 3 000 kb/s
Width                                    : 1 920 pixels
Height                                   : 1 080 pixels
Display aspect ratio                     : 16:9
Frame rate mode                          : Constant
Frame rate                               : 29.970 (30000/1001) FPS
Color space                              : YUV
Chroma subsampling                       : 4:2:0
Bit depth                                : 8 bits
Scan type                                : Progressive
Bits/(Pixel*Frame)                       : 0.048
Stream size                              : 1.28 GiB (98%)
Writing library                          : x264 core 152 r2854 e9a5903
Encoding settings                        : cabac=1 / ref=3 / deblock=1:0:0 / analyse=0x3:0x113 / me=hex / subme=7 / psy=1 / psy_rd=1.00:0.00 / mixed_ref=1 / me_range=16 / chroma_me=1 / trellis=1 / 8x8dct=1 / cqm=0 / deadzone=21,11 / fast_pskip=1 / chroma_qp_offset=-2 / threads=34 / lookahead_threads=5 / sliced_threads=0 / nr=0 / decimate=1 / interlaced=0 / bluray_compat=0 / constrained_intra=0 / bframes=3 / b_pyramid=2 / b_adapt=1 / b_bias=0 / direct=1 / weightb=1 / open_gop=0 / weightp=2 / keyint=60 / keyint_min=31 / scenecut=0 / intra_refresh=0 / rc_lookahead=40 / rc=abr / mbtree=1 / bitrate=3000 / ratetol=1.0 / qcomp=0.60 / qpmin=0 / qpmax=69 / qpstep=4 / ip_ratio=1.40 / aq=1:1.00

Audio
ID                                       : 2
Format                                   : AAC
Format/Info                              : Advanced Audio Codec
Format profile                           : LC
Codec ID                                 : mp4a-40-2
Duration                                 : 1 h 0 min
Bit rate mode                            : Constant
Bit rate                                 : 64.7 kb/s
Channel(s)                               : 2 channels
Channel positions                        : Front: L R
Sampling rate                            : 48.0 kHz
Frame rate                               : 46.875 FPS (1024 SPF)
Compression mode                         : Lossy
Stream size                              : 27.9 MiB (2%)
Default                                  : Yes
Alternate group                          : 1

 
 
 
 
 
 
Category:TV > WEB-HD
Lang:Hindi
Total Size:10.53 GB



|| Download This Tv Show Via Single Resumable Links Size: 14.08 GB ||

Direct-1 Google Drive | Direct-2 | Direct-3 |

Watch Online Click Here

No comments:

Post a Comment