Duniyadari (2017) Gujarati 1080p WeB-DL AAC MP4 - DTOne


Poster
c18b431c1490c2a4926b9eff248fef34.jpg


iMDB
Imdb Picture Title: Duniyadari the Film
Year: 2017
Runtime: 142 minutes
Votes: 28
Rating: 8.4/10
Language: Gujarati
Country: India
All Genres: Drama
Plot Outline: College buddies play cupid for a couple whose love story is destined to end in tears - yet, when they reunite years later, the college pals find their memories to be mostly sweet.
Director: Shital Shah
Writing By: Ankit Joshipura,Shital Shah,
Produced By: Tajdar Amrohi,Riyaz Balooch,
Music: Monty Sharma
Cast:
Malhar Thakar as Meet Mehta
Esha Kansara as Kavita Zaveri
Aarjav Trivedi as Dharmesh Shankarbhai Patel
Tarika Tripathi as Shilpa Patel
Parikshit Tamalia as Krunal Zaveri
Shaunak Vyas as Dushyant Dhebar
Rajan Thakar as Manoj
Kishan Gadhvi as Sorry
Hemang Shah as Jignesh
Galsar Sanjay as Paraag

Details
Name:Duniyadari (2017) Gujarati 1080p WeB-DL AAC MP4 - DTOne
Description:
Duniyadari (2017) Gujarati 1080p WeB-DL AAC MP4 - DTOne 


c18b431c1490c2a4926b9eff248fef34.jpg



Format                                   : Matroska
Format version                           : Version 4 / Version 2
File size                                : 5.99 GiB
Duration                                 : 2 h 23 min
Overall bit rate                         : 5 984 kb/s
Encoded date                             : UTC 2018-07-26 21:07:10
Writing application                      : mkvmerge v25.0.0 ('Prog Noir') 64-bit
Writing library                          : libebml v1.3.6 + libmatroska v1.4.9

Video
ID                                       : 1
Format                                   : AVC
Format/Info                              : Advanced Video Codec
Format profile                           : High@L4
Format settings                          : CABAC / 4 Ref Frames
Format settings, CABAC                   : Yes
Format settings, ReFrames                : 4 frames
Codec ID                                 : V_MPEG4/ISO/AVC
Duration                                 : 2 h 23 min
Bit rate                                 : 5 873 kb/s
Width                                    : 1 920 pixels
Height                                   : 1 080 pixels
Display aspect ratio                     : 16:9
Frame rate mode                          : Constant
Frame rate                               : 24.000 FPS
Color space                              : YUV
Chroma subsampling                       : 4:2:0
Bit depth                                : 8 bits
Scan type                                : Progressive
Bits/(Pixel*Frame)                       : 0.118
Stream size                              : 5.79 GiB (97%)
Writing library                          : x264 core 133 r2 a3ac64b
Default                                  : Yes
Forced                                   : No

Audio
ID                                       : 2
Format                                   : AAC
Format/Info                              : Advanced Audio Codec
Format profile                           : LC
Codec ID                                 : A_AAC-2
Duration                                 : 2 h 23 min
Bit rate                                 : 192 kb/s
Channel(s)                               : 2 channels
Channel positions                        : Front: L R
Sampling rate                            : 48.0 kHz
Frame rate                               : 46.875 FPS (1024 SPF)
Compression mode                         : Lossy
Delay relative to video                  : -43 ms
Stream size                              : 199 MiB (3%)
Default                                  : Yes
Forced                                   : No


Category:Movies > WEB-HD
Lang:Hindi
Total Size:5.99 GB



|| Download This Movie Via Single Resumable Links Size: 5.99 GB ||

Direct-1 Google Drive | Direct-2 | Direct-3 |

Watch Online Click Here

Post a Comment

0 Comments