Game of Thrones S01E05 720p x264 BluRay Dual Audio [English + Hindi] Esub 524MB [Crazzyboy]


Poster
67dd14477357e41d7af626878e17ab79.jpg


iMDB
Imdb Picture Title: "Game of Thrones" The Wolf and the Lion
Year: 2011
Runtime: 55 minutes
Votes: 18689
Rating: 9.1/10
Language: English
All Genres: Action, Adventure, Drama, Fantasy, Romance
Plot Outline: When King Robert learns that Daenerys and the Dothrakis are preparing for war, he decides to attack first. Ned is against the idea saying they should go slowly and learn more but the King calls him a weakling and dismisses him as the King's Hand. Playing in the dungeons, Arya overhears two men plotting against her father. She tells him what she heard and he decides the time has come for him to return to Winterfell. He delays his departure when given the opportunity to speak to the last person his predecessor spoke to, a whore who gave Robert another illegitimate son. The delay is costly however and leads to a serious injury. Catelyn meanwhile takes Tyrion to her sister Lysa, who also happens to be the John Arryn's widow. Written by garykmcd
Director: Brian Kirk
Writing By: David Benioff,D.B. Weiss,George R.R. Martin,David Benioff,D.B. Weiss,
Produced By: David Benioff,Jonathan Brytus,Guymon Casady,Frank Doelger,Vince Gerardis,Mark Huffam,Christopher Newman,Greg Spence,D.B. Weiss,
Music: Ramin Djawadi
Cast:
Sean Bean as Eddard 'Ned' Stark
Mark Addy as Robert Baratheon
Nikolaj Coster-Waldau as Jaime Lannister
Michelle Fairley as Catelyn Stark
Lena Headey as Cersei Lannister
Aidan Gillen as Petyr 'Littlefinger' Baelish
Sophie Turner as Sansa Stark
Maisie Williams as Arya Stark
Alfie Allen as Theon Greyjoy
Isaac Hempstead Wright as Bran Stark


Details
Name:Game of Thrones S01E05 720p x264 BluRay Dual Audio [English + Hindi] Esub 524MB [Crazzyboy]
Description:
Game of Thrones S01E05 720p x264 BluRay Dual Audio [English + Hindi] Esub 524MB [Crazzyboy]

gameofthroneseps051.jpg

Format : Matroska
Format version : Version 4 / Version 2
File size : 524 MiB
Duration : 54 min 16 s
Overall bit rate : 1 350 kb/s

Video
Format : AVC
Duration : 54 min 16 s
Bit rate : 1 092 kb/s
Width : 1 280 pixels
Height : 720 pixels
Display aspect ratio : 16:9
Frame rate : 23.976 (24000/1001) FPS
Bits/(Pixel*Frame) : 0.049
Stream size : 424 MiB (81%)
Language : English
Default : Yes

Audio #1
Format : AC-3
Duration : 54 min 16 s
Bit rate mode : Constant
Bit rate : 192 kb/s
Channel(s) : 6 channels
Channel positions : Front: L C R, Side: L R, LFE
Sampling rate : 48.0 kHz
Stream size : 74.5 MiB (14%)
Language : Hindi

Audio #2
Format : AAC
Duration : 54 min 16 s
Bit rate : 63.9 kb/s
Channel(s) : 2 channels
Channel positions : Front: L R
Language : English

Text
Codec ID/Info : UTF-8 Plain Text
Duration : 52 min 54 s
Stream size : 28.8 KiB (0%)
Language : English







Category:TV > WEB-HD
Lang:Hindi
Total Size:524.19 MB



|| Download This Tv Show Via Single Resumable Links Size: 526 MB ||

Direct-1 Google Drive | Direct-2 | Direct-3 |

Watch Online Click Here

Post a Comment

0 Comments