Crazy World Only 4 You

Sorry For The Inconvenience. If You are facing link dead or no google drive file access then inform us via comment

Latest Updates

Monday, 2 July 2018

Game of Thrones S01E06 720p x264 BluRay Dual Audio [English + Hindi] Esub 522MB [Crazzyboy]


Poster


iMDB
Imdb Picture Title: "Game of Thrones" A Golden Crown
Year: 2011
Runtime: 53 minutes
Votes: 18581
Rating: 9.2/10
Language: English
All Genres: Action, Adventure, Drama, Fantasy, Romance
Plot Outline: A calmer King Robert mends fences with Ned Stark and reinstates him as the King's Hand despite the objections of his wife Cersei. While he goes hunting with his brother Renly he puts Ned on the throne. A group of farmers complain of having been attacked by a Knight and his army and knowing the culprit orders him stripped of all titles and lands. Ned decides to send Arya and Sansa back to Winterfell for their protection. Sansa in particular doesn't want to leave saying she wants to marry Joffre and have blond babies. Her offhand remark leads Ned back to the book his predecessor was so interested in and he now understands why John Arryn was visiting King Robert's bastard children. Meanwhile, Daenerys and her brother Viserys have yet another confrontation but this one is settled by Drogo himself. An imprisoned Tyrion Lannister demands to be tried and asks for trial by combat. Written by garykmcd
Director: Daniel Minahan
Writing By: David Benioff,D.B. Weiss,George R.R. Martin,Jane Espenson,David Benioff,D.B. Weiss,David Benioff,D.B. Weiss,
Produced By: David Benioff,Jonathan Brytus,Guymon Casady,Frank Doelger,Jim Duggan,Vince Gerardis,Mark Huffam,George R.R. Martin,Christopher Newman,Greg Spence,Carolyn Strauss,Guy Tannahill,Ralph Vicinanza,D.B. Weiss,
Music: Ramin Djawadi
Cast:
Sean Bean as Eddard 'Ned' Stark
Mark Addy as Robert Baratheon
Michelle Fairley as Catelyn Stark
Lena Headey as Cersei Lannister
Emilia Clarke as Daenerys Targaryen
Iain Glen as Jorah Mormont
Aidan Gillen as Petyr 'Littlefinger' Baelish
Harry Lloyd as Viserys Targaryen
Richard Madden as Robb Stark
Sophie Turner as Sansa Stark


Details
Name: Game of Thrones S01E06 720p x264 BluRay Dual Audio [English + Hindi] Esub 522MB [Crazzyboy]
Description:
 Game of Thrones S01E06 720p x264 BluRay Dual Audio [English + Hindi] Esub 522MB [Crazzyboy] 






General
Format                      : Matroska
Format version              : Version 4 / Version 2
File size                   : 522 MiB
Duration                    : 52 min 36 s
Overall bit rate            : 1 388 kb/s
Encoded date                : UTC 2018-06-29 18:31:09

Video
Format/Info                 : Advanced Video Codec
Duration                    : 52 min 36 s
Bit rate                    : 1 129 kb/s
Width                       : 1 280 pixels
Height                      : 720 pixels
Display aspect ratio        : 16:9
Frame rate                  : 23.976 (24000/1001) FPS
Color space                 : YUV
Stream size                 : 425 MiB (81%)
Writing library             : x264 core
Language                    : English
Default                     : Yes

Audio #1
Format                      : AC-3
Bit rate                    : 192 kb/s
Channel(s)                  : 6 channels
Channel positions           : Front: L C R, Side: L R, LFE
Sampling rate               : 48.0 kHz
Stream size                 : 72.3 MiB (14%)
Language                    : Hindi
Service kind                : Complete Main

Audio #2
Format                      : AAC
Duration                    : 52 min 36 s
Bit rate                    : 64.0 kb/s
Channel(s)                  : 2 channels
Frame rate                  : 23.438 FPS (1024 SPF)
Stream size                 : 24.1 MiB (5%)
Language                    : English

Text
Codec ID/Info               : UTF-8 Plain Text
Duration                    : 51 min 30 s
Stream size                 : 19.1 KiB (0%)
Language                    : English






Category:TV > Hollywood
Lang:Hindi
Total Size:522.17 MB



|| Download This Tv Show Via Single Resumable Links Size: 522 MB ||

Direct-1 Google Drive | Direct-2 | Direct-3 |

Watch Online Click Here

No comments:

Post a Comment