Game of Thrones S01E07 720p x264 BluRay Dual Audio [English + Hindi] Esub 529MB [Crazzyboy]


Poster


iMDB
Imdb Picture Title: "Game of Thrones" You Win or You Die
Year: 2011
Runtime: 58 minutes
Votes: 18949
Rating: 9.3/10
Language: English
Country: USA
All Genres: Action, Adventure, Drama, Fantasy, Romance
Plot Outline: Ned confronts Cersei about her children but she dismisses his allegations. The head of the Lannister clan tells his son Jaime to be a leader and sends him to rescue Tyrion. Ros, the prostitute from Winterfell begins working for Littlefinger in King's Landing. At the wall, a riderless horse belonging to Jon Snow's uncle Benjen returns to the wall. Jon takes his vows as a Night's Watchman but is disappointed to not having been named a Ranger but Sam sees it differently. King Robert is injured while out boar hunting with his brother. He knows he will not survive and names Ned Lord Regent until Joffrey comes of age. Knowing that Joffrey is not Robert's son, he feels Robert's brother should succeed him but Littlefinger counsel's otherwise. A wine vendor tries to poison Daenerys and Drogo promises to put their son on the throne of the Seven Kingdoms. Written by garykmcd
Director: Daniel Minahan
Writing By: David Benioff,D.B. Weiss,George R.R. Martin,David Benioff,D.B. Weiss,
Produced By: David Benioff,Jonathan Brytus,Guymon Casady,Frank Doelger,Vince Gerardis,Mark Huffam,Christopher Newman,Greg Spence,D.B. Weiss,
Music: Ramin Djawadi
Cast:
Sean Bean as Eddard 'Ned' Stark
Mark Addy as Robert Baratheon
Nikolaj Coster-Waldau as Jaime Lannister
Lena Headey as Cersei Lannister
Emilia Clarke as Daenerys Targaryen
Iain Glen as Jorah Mormont
Aidan Gillen as Petyr 'Littlefinger' Baelish
Kit Harington as Jon Snow
Alfie Allen as Theon Greyjoy
Jack Gleeson as Joffrey Baratheon


Details
Name: Game of Thrones S01E07 720p x264 BluRay Dual Audio [English + Hindi] Esub 529MB [Crazzyboy]
Description:
 Game of Thrones S01E07 720p x264 BluRay Dual Audio [English + Hindi] Esub 529MB [Crazzyboy]


 

3206dd0a70867faaa687952360791845.png

General
Format : Matroska
Format version : Version 4 / Version 2
File size : 529 MiB
Duration : 57 min 47 s
Overall bit rate : 1 280 kb/s
Encoded date : UTC 2018-07-03 07:33:33

Video
Format : AVC
Format/Info : Advanced Video Codec
Duration : 57 min 47 s
Bit rate : 1 022 kb/s
Width : 1 280 pixels
Height : 720 pixels
Display aspect ratio : 16:9
Frame rate mode : Constant
Frame rate : 23.976 (24000/1001) FPS
Stream size : 422 MiB (80%)
Language : English
Default : Yes

Audio #1
Format : AC-3
Duration : 57 min 46 s
Bit rate : 192 kb/s
Channel(s) : 6 channels
Channel positions : Front: L C R, Side: L R, LFE
Sampling rate : 48.0 kHz
Stream size : 79.4 MiB (15%)
Language : Hindi
Service kind : Complete Main
Default : Yes

Audio #2
Format : AAC
Duration : 57 min 47 s
Bit rate : 64.0 kb/s
Channel(s) : 2 channels
Sampling rate : 48.0 kHz / 24.0 kHz
Frame rate : 23.438 FPS (1024 SPF)
Stream size : 26.4 MiB (5%)
Language : English

Text
Format : UTF-8
Codec ID/Info : UTF-8 Plain Text
Duration : 56 min 24 s
Stream size : 25.7 KiB (0%)
Language : English     






 
Category:TV > Hollywood
Lang:Hindi
Total Size:529.15 MB



|| Download This Tv Show Via Single Resumable Links Size: 529 MB ||

Direct-1 Google Drive | Direct-2 | Direct-3 |

Watch Online Click Here

Post a Comment

0 Comments