Game of Thrones S01E08 720p x264 BluRay Dual Audio [English + Hindi] Esub 530MB [Crazzyboy]


Poster


iMDB
Imdb Picture Title: "Game of Thrones" The Pointy End
Year: 2011
Runtime: 59 minutes
Votes: 17360
Rating: 9.1/10
Language: English
Country: USA
All Genres: Action, Adventure, Drama, Fantasy, Romance
Plot Outline: Joffrey has claimed the throne and he and is mother eliminate Ned Stark's supporters. Ned is imprisoned and Sansa remains engaged to Joffrey but Arya seems to have escaped. Cersei gets Sansa to write to her eldest brother Robb to ask him to swear loyalty to the new King. Robb agrees to go, but at the head of an army. Catelyn receives word of her husband's imprisonment and learns that her sister will not support her. Tyrion and Bronn encounter the Stone Crows and makes them an offer they can't refuse. At the wall Jon's wolf, Ghost, alerts him to trouble and it seems that the White Walkers have returned. Daenarys has trouble accepting the rape of new female slaves and when Drogo supports her, he is called out by one his men. Written by garykmcd
Director: Daniel Minahan
Writing By: David Benioff,D.B. Weiss,George R.R. Martin,George R.R. Martin,
Produced By: David Benioff,Jonathan Brytus,Guymon Casady,Frank Doelger,Jim Duggan,Vince Gerardis,Mark Huffam,Christopher Newman,Greg Spence,Guy Tannahill,D.B. Weiss,
Music: Ramin Djawadi
Cast:
Sean Bean as Eddard 'Ned' Stark
Michelle Fairley as Catelyn Stark
Lena Headey as Cersei Lannister
Emilia Clarke as Daenerys Targaryen
Iain Glen as Jorah Mormont
Aidan Gillen as Petyr 'Littlefinger' Baelish
Kit Harington as Jon Snow
Richard Madden as Robb Stark
Sophie Turner as Sansa Stark
Maisie Williams as Arya Stark


Details
Name:Game of Thrones S01E08 720p x264 BluRay Dual Audio [English + Hindi] Esub 530MB [Crazzyboy]
Description:
Game of Thrones S01E08 720p x264 BluRay Dual Audio [English + Hindi] Esub 530MB [Crazzyboy]



s01e08.png

General
Format                      : Matroska
Format version              : Version 4 / Version 2
File size                   : 530 MiB
Duration                    : 58 min 8 s
Overall bit rate            : 1 273 kb/s
Encoded date                : UTC 2018-07-06 08:48:48

Video
Format                      : AVC
Format/Info                 : Advanced Video Codec
Duration                    : 58 min 8 s
Bit rate                    : 1 015 kb/s
Width                       : 1 280 pixels
Height                      : 720 pixels
Display aspect ratio        : 16:9
Frame rate mode             : Constant
Stream size                 : 422 MiB (80%)
Language                    : English

Audio #1
Format                      : AC-3
Codec ID                    : A_AC3
Duration                    : 58 min 8 s
Bit rate                    : 192 kb/s
Channel(s)                  : 6 channels
Channel positions           : Front: L C R, Side: L R, LFE
Sampling rate               : 48.0 kHz
Stream size                 : 79.8 MiB (15%)
Language                    : Hindi
Default                     : Yes

Audio #2
Format                      : AAC
Duration                    : 58 min 8 s
Bit rate                    : 63.9 kb/s
Channel(s)                  : 2 channels
Channel positions           : Front: L R
Frame rate                  : 23.438 FPS (1024 SPF)
Stream size                 : 26.6 MiB (5%)
Language                    : English

Text
Format                      : UTF-8
Codec ID/Info               : UTF-8 Plain Text
Duration                    : 57 min 9 s
Bit rate                    : 56 b/s
Stream size                 : 23.7 KiB (0%)
Language                    : English 







Category:TV > Hollywood
Lang:Hindi
Total Size:529.53 MB



|| Download This Tv Show Via Single Resumable Links Size: 530 MB ||

Direct-1 Google Drive | Direct-2 | Direct-3 |

Watch Online Click Here

Post a Comment

0 Comments