Game of Thrones S01E09 720p x264 BluRay Dual Audio [English + Hindi] Esub 527MB [Crazzyboy]


Poster


iMDB
Imdb Picture Title: "Game of Thrones" Baelor
Year: 2011
Runtime: 57 minutes
Votes: 24684
Rating: 9.6/10
Language: English
Country: USA
All Genres: Action, Adventure, Drama, Fantasy, Romance
Plot Outline: Sansa begs King Joffrey to spare her father's life. With his mother's support he agrees to spare him provided Ned publicly confesses that he is a traitor and recognizes him as the rightful king. Ned refuses at first but soon recognizes that the lives of his children are at stake and eventually agrees. Arya has eluded capture living in the town and scrounging for food. She goes to the square when she hears her father is to appear. What happens is something no child should have to witness. Tyrion arrives at his father's camp but the elder Lannister is dismissive of his diminutive son. He also tells him that he will be in the vanguard of the attack to take place the next day against Robb Stark's forces arriving from the north. For his part, Robb is proving to be an able field general and takes a Lannister prisoner. Daenerys finds she has little influence after Drogo falls ill and is unable to ride. Written by garykmcd
Director: Alan Taylor
Writing By: David Benioff,D.B. Weiss,George R.R. Martin,David Benioff,D.B. Weiss,
Produced By: David Benioff,Jonathan Brytus,Guymon Casady,Frank Doelger,Jim Duggan,Vince Gerardis,Mark Huffam,Christopher Newman,Greg Spence,Guy Tannahill,D.B. Weiss,
Music: Ramin Djawadi
Cast:
Sean Bean as Eddard 'Ned' Stark
Michelle Fairley as Catelyn Stark
Nikolaj Coster-Waldau as Jaime Lannister
Lena Headey as Cersei Lannister
Emilia Clarke as Daenerys Targaryen
Iain Glen as Jorah Mormont
Aidan Gillen as Petyr 'Littlefinger' Baelish
Kit Harington as Jon Snow
Richard Madden as Robb Stark
Sophie Turner as Sansa Stark




Details
Name:Game of Thrones S01E09 720p x264 BluRay Dual Audio [English + Hindi] Esub 527MB [Crazzyboy]
Description:
Game of Thrones S01E09 720p x264 BluRay Dual Audio [English + Hindi] Esub 527MB [Crazzyboy] 





ad0f48391bac6c7cf14ecd618e789608.png



General
Format : Matroska
Format version : Version 4 / Version 2
File size : 527 MiB
Duration : 56 min 16 s
Overall bit rate : 1 309 kb/s
Encoded date : UTC 2018-07-09 08:04:22

Video
ID : 2
Format : AVC
Format settings : CABAC / 5 Ref Frames
Format settings, CABAC : Yes
Duration : 56 min 16 s
Bit rate : 1 051 kb/s
Width : 1 280 pixels
Height : 720 pixels
Display aspect ratio : 16:9
Frame rate mode : Constant
Frame rate : 23.976 (24000/1001) FPS
Stream size : 423 MiB (80%)
Language : English

Audio #1
Format : AC3
Bit rate : 192 kb/s
Channel(s) : 6 channels
Channel positions : Front: L C R, Side: L R, LFE
Sampling rate : 48.0 kHz
Frame rate : 31.250 FPS (1536 SPF)
Stream size : 77.3 MiB (15%)
Language : Hindi
Service kind : Complete Main
Default : Yes

Audio #2
Format : AAC
Duration : 56 min 16 s
Bit rate : 64.0 kb/s
Channel(s) : 2 channels
Channel positions : Front: L R
Sampling rate : 48.0 kHz / 24.0 kHz
Frame rate : 23.438 FPS (1024 SPF)
Language : English

Text
Format : UTF-8
Codec ID/Info : UTF-8 Plain Text
Duration : 55 min 10 s
Stream size : 23.4 KiB (0%)
Language : English







Category:TV > Hollywood
Lang:Hindi
Total Size:526.98 MB



|| Download This Tv Show Via Single Resumable Links Size: 527 MB ||

Direct-1 Google Drive | Direct-2 | Direct-3 |

Watch Online Click Here

Post a Comment

0 Comments