Crazy World Only 4 You

Sorry For The Inconvenience. If You are facing link dead or no google drive file access then inform us via comment

Latest Updates

Friday, 13 July 2018

Game of Thrones S01E10 720p x264 BluRay Dual Audio [English + Hindi] Esub 522MB [Crazzyboy]


Poster


iMDB
Imdb Picture Title: "Game of Thrones" Fire and Blood
Year: 2011
Runtime: 53 minutes
Votes: 21822
Rating: 9.5/10
Language: English
Country: USA
All Genres: Action, Adventure, Drama, Fantasy, Romance
Plot Outline: Robb's banner-men declare him to be King of the North. At Castle Black, Jon decides to desert the brotherhood and join Robb's army. Sam and his other friends have something else in mind. Having been rescued by a Night's Watchman, Arya begins her travels north to the wall. Impressed by Tyrion's good advice, Tywin sends him to King's Landing to act as the King's Hand while he is occupied with the war. Daenerys learns that she has lost the baby and realizes the error she made in trying to keep Drogo alive. At his funeral, she boldly walks into his funeral pyre and the outcome is a surprise to everyone but her. Written by garykmcd
Director: Alan Taylor
Writing By: David Benioff,D.B. Weiss,George R.R. Martin,David Benioff,D.B. Weiss,
Produced By: David Benioff,Jonathan Brytus,Guymon Casady,Frank Doelger,Jim Duggan,Vince Gerardis,Mark Huffam,Christopher Newman,Greg Spence,Guy Tannahill,D.B. Weiss,
Music: Ramin Djawadi
Cast:
Sean Bean as Eddard 'Ned' Stark
Michelle Fairley as Catelyn Stark
Nikolaj Coster-Waldau as Jaime Lannister
Lena Headey as Cersei Lannister
Emilia Clarke as Daenerys Targaryen
Iain Glen as Jorah Mormont
Aidan Gillen as Petyr 'Littlefinger' Baelish
Kit Harington as Jon Snow
Richard Madden as Robb Stark
Sophie Turner as Sansa Stark


Details
Name:Game of Thrones S01E10 720p x264 BluRay Dual Audio [English + Hindi] Esub 522MB [Crazzyboy]
Description:
Game of Thrones S01E10 720p x264 BluRay Dual Audio [English + Hindi] Esub 522MB [Crazzyboy]







0334faccfc725a2a72af3a153ca6209a.png



Format                      : Matroska
Format version              : Version 4 / Version 2
File size                   : 522 MiB
Duration                    : 52 min 37 s
Overall bit rate            : 1 388 kb/s
Encoded date                : UTC 2018-07-12 08:04:22

Video
ID                          : 2
Format                      : AVC
Format settings             : CABAC / 5 Ref Frames
Format settings, CABAC      : Yes
Duration                    : 52 min 37 s
Bit rate                    : 1 051 kb/s
Width                       : 1 280 pixels
Height                      : 720 pixels
Display aspect ratio        : 16:9
Frame rate mode             : Constant
Frame rate                  : 23.976 (24000/1001) FPS
Stream size                 : 423 MiB (80%)
Language                    : English

Audio #1
Format                      : AC3
Bit rate                    : 192 kb/s
Channel(s)                  : 6 channels
Channel positions           : Front: L C R, Side: L R, LFE
Sampling rate               : 48.0 kHz
Frame rate                  : 31.250 FPS (1536 SPF)
Stream size                 : 72.2 MiB (14.5%)
Language                    : Hindi
Service kind                : Complete Main
Default                     : Yes

Audio #2
Format                      : AAC
Duration                    : 52 min 37 s
Bit rate                    : 64.0 kb/s
Channel(s)                  : 2 channels
Channel positions           : Front: L R
Sampling rate               : 48.0 kHz / 24.0 kHz
Frame rate                  : 23.438 FPS (1024 SPF)
Language                    : English

Text
Format                      : UTF-8
Codec ID/Info               : UTF-8 Plain Text
Duration                    : 52 min 37 s
Stream size                 : 23.4 KiB (0%)
Language                    : English







Category:TV > Hollywood
Lang:Hindi
Total Size:522.29 MB



|| Download This Tv Show Via Single Resumable Links Size: 522 MB ||

Direct-1 Google Drive | Direct-2 | Direct-3 |

Watch Online Click Here

No comments:

Post a Comment