Gone (2012) BluRay 720p Dual Audio [Hindi + Eng] x264 Esubs Exclusive By Maher


Poster


iMDB
Imdb Picture Title: Gone
Year: 2012
Runtime: 94 minutes
Votes: 37920
Rating: 5.9/10
Language: English
Country: USA
All Genres: Action, Adventure, Drama, Horror, Mystery, Thriller
Plot Outline: When her sister disappears, Jill is convinced the serial killer who kidnapped her two years ago has returned, and she sets out to once again face her abductor. Written by Anonymous
Tagline: No one believes her. Nothing will stop her.
Director: Heitor Dhalia
Writing By: Allison Burnett,
Produced By: Dan Abrams,Matt Berenson,Allison Burnett,Ted Gidlow,Sidney Kimmel,Andre Lamal,Gary Lucchesi,Tom Rosenberg,Chris Salvaterra,Jim Tauber,Bruce Toll,
Music: David Buckley
Cast:
Amanda Seyfried as Jill
Daniel Sunjata as Powers
Jennifer Carpenter as Sharon Ames
Sebastian Stan as Billy
Wes Bentley as Peter Hood
Nick Searcy as Mr. Miller
Socratis Otto as Jim
Emily Wickersham as Molly
Joel David Moore as Nick Massey
Katherine Moennig as Erica Lonsdale
Trailers:
No. 1


Details
Name:Gone (2012) BluRay 720p Dual Audio [Hindi + Eng] x264 Esubs Exclusive By Maher
Description:
Gone 2012 x264 720p Dual Audio [Hindi + Eng] BluRay Esubs Exclusive By Maher

-= No one believes her. Nothing will stop her. =-

-=Exclusive By -=MAHER=-



Format                                   : Matroska
Format version                           : Version 4 / Version 2
File size                                : 778 MiB
Duration                                 : 1 h 34 min
Overall bit rate                         : 1 147 kb/s
Encoded date                             : UTC 2018-07-21 10:10:21
Writing application                      : mkvmerge v9.7.1 ('Pandemonium') 64bit
Writing library                          : libebml v1.3.4 + libmatroska v1.4.5

Video
ID                                       : 1
Format                                   : AVC
Format/Info                              : Advanced Video Codec
Format profile                           : High@L4
Format settings                          : CABAC / 5 Ref Frames
Format settings, CABAC                   : Yes
Format settings, RefFrames               : 5 frames
Codec ID                                 : V_MPEG4/ISO/AVC
Duration                                 : 1 h 34 min
Bit rate                                 : 861 kb/s
Width                                    : 1 280 pixels
Height                                   : 528 pixels
Display aspect ratio                     : 2.40:1
Frame rate mode                          : Constant
Frame rate                               : 23.976 (24000/1001) FPS
Color space                              : YUV
Chroma subsampling                       : 4:2:0
Bit depth                                : 8 bits
Scan type                                : Progressive
Bits/(Pixel*Frame)                       : 0.053
Stream size                              : 584 MiB (75%)
Writing library                          : x264 core 120 r2164 da19765
Default                                  : Yes
Forced                                   : No

Audio #1
ID                                       : 2
Format                                   : AAC
Format/Info                              : Advanced Audio Codec
Format profile                           : LC
Codec ID                                 : A_AAC-2
Duration                                 : 1 h 34 min
Bit rate                                 : 94.0 kb/s
Channel(s)                               : 2 channels
Channel positions                        : Front: L R
Sampling rate                            : 44.1 kHz
Frame rate                               : 43.066 FPS (1024 SPF)
Compression mode                         : Lossy
Stream size                              : 63.8 MiB (8%)
Default                                  : No
Forced                                   : No

Audio #2
ID                                       : 3
Format                                   : AAC
Format/Info                              : Advanced Audio Codec
Format profile                           : LC
Codec ID                                 : A_AAC-2
Duration                                 : 1 h 34 min
Bit rate                                 : 192 kb/s
Channel(s)                               : 2 channels
Channel positions                        : Front: L R
Sampling rate                            : 48.0 kHz
Frame rate                               : 46.875 FPS (1024 SPF)
Compression mode                         : Lossy
Stream size                              : 129 MiB (17%)
Title                                    : by Maher
Language                                 : Hindi
Default                                  : Yes
Forced                                   : Yes

Text
ID                                       : 4
Format                                   : UTF-8
Codec ID                                 : S_TEXT/UTF8
Codec ID/Info                            : UTF-8 Plain Text
Duration                                 : 1 h 29 min
Bit rate                                 : 56 b/s
Count of elements                        : 963
Stream size                              : 37.0 KiB (0%)
Default                                  : Yes
Forced                                   : No

It's PAK Dubbing DTH Audio 1st on Net





Category:Movies > Hollywood Dub
Lang:Hindi
Total Size:788.69 MB



|| Download This Movie Via Single Resumable Links Size: 778 MB ||

Direct-1 Google Drive | Direct-2 | Direct-3 |

Watch Online Click Here

Post a Comment

0 Comments