Guptodhoner Sondhane (2018) Bengali 720p AMZN WEB-DL x264 AAC DD 2.0 Team Jio Exclusive


Poster
d13ec2f2bbd80917947294178cc31e40.jpg


iMDB
Imdb Picture Title: Guptodhoner Sondhane
Year: 2018
Votes: 49
Rating: 7.6/10
Language: Bengali
Country: India
All Genres: Adventure
Plot Outline: Drawing heavily from Satyajit Ray's Feluda stories and the adventures of Indiana Jones, Dhrubo Banerjee's new treasure hunt adventure flick has all the ingredients required to become a crowd pleaser, which it is. Banerjee knows his audience's psyche like the back of his hand, and he plays on their likes and dislikes, taking them along on a rollercoaster ride that makes no pretence of being intelligent and is pure unabashed fun instead. Banerjee's protagonist is a half-Feluda-half-Indiana-Jones like character named Subarna Sen (fondly referred to as Sona Da) who is a professor of History at Oxford University. When he returns to India, Sona Da meets Abir, his nephew. Abir takes Sona Da to their ancestral home in the village of Manikantapur, where Abir's eccentric but erudite maternal uncle (Goutam Ghose, in a lovely little cameo) has recently passed away under mysterious circumstances. When they reach the village, Sona Da and Abir learn of a rural lore that talks about a 350-year-old ...
Director: Dhrubo Banerjee

Music: Bickram Ghosh
Cast:
Sibaji Bandyopadhyay as Priest Ramkrishna
Arjun Chakraborty as Abir
Abir Chatterjee as Prof. Subarna Sen
Rajatabha Dutta as Dashanan Dawn
Goutam Ghose as
Kamaleswar Mukherjee as Mama
Ishaa Saha as Jhinuk
Arindam Sil as



Details
Name:Guptodhoner Sondhane (2018) Bengali 720p AMZN WEB-DL x264 AAC DD 5.1 Team Jio Exclusive
Description:
Guptodhoner Sondhane (2018) Bengali 720p AMZN WEB-DL x264 AAC DD 5.1 Team Jio Exclusive

52a565f3a9bf0ecaa87bba10557c0349.jpg



Format                                   : MPEG-4
Format profile                           : Base Media
Codec ID                                 : isom (isom/iso2/avc1/mp41)
File size                                : 1.04 GiB
Duration                                 : 2 h 10 min
Overall bit rate                         : 1 144 kb/s
Writing application                      : Lavf58.12.100

Video
ID                                       : 1
Format                                   : AVC
Format/Info                              : Advanced Video Codec
Format profile                           : High@L3.1
Format settings                          : CABAC / 4 Ref Frames
Format settings, CABAC                   : Yes
Format settings, ReFrames                : 4 frames
Codec ID                                 : avc1
Codec ID/Info                            : Advanced Video Coding
Duration                                 : 2 h 10 min
Bit rate                                 : 1 063 kb/s
Width                                    : 1 280 pixels
Height                                   : 544 pixels
Display aspect ratio                     : 2.35:1
Original display aspect ratio            : 2.35:1
Frame rate mode                          : Constant
Frame rate                               : 25.000 FPS
Color space                              : YUV
Chroma subsampling                       : 4:2:0
Bit depth                                : 8 bits
Scan type                                : Progressive
Bits/(Pixel*Frame)                       : 0.061
Stream size                              : 989 MiB (92%)
Writing library                          : x264 core 148 r2643 5c65704

Audio
ID                                       : 2
Format                                   : AAC
Format/Info                              : Advanced Audio Codec
Format profile                           : LC
Codec ID                                 : mp4a-40-2
Duration                                 : 2 h 10 min
Duration_LastFrame                       : -11 ms
Bit rate mode                            : Constant
Bit rate                                 : 80.0 kb/s
Channel(s)                               : 2 channels
Channel(s)_Original                      : 1 channel
Channel positions                        : Front: C
Sampling rate                            : 44.1 kHz
Frame rate                               : 43.066 FPS (1024 SPF)
Compression mode                         : Lossy
Stream size                              : 74.8 MiB (7%)
Default                                  : Yes
Alternate group                          : 1



0g6Od.th.png 0gLHE.th.png 0gcjv.th.png 0gwRt.th.png 0gVm9.th.png 0gXx8.th.png 0gjGJ.th.png 0glED.th.png
Category:Movies > HDRips
Lang:Bengali 
Total Size:1.04 GB



|| Download This Movie Via Single Resumable Links Size: 1.04 GB ||

Direct-1 Google Drive | Direct-2 | Direct-3 |

Watch Online Click Here

Post a Comment

0 Comments