Kaala (2018) 720p UNCUT HDRip x264 Eng Subs [Dual Audio] [Hindi Org DD 2.0 - Telugu 2.0] Exclusive By -=!ICTV!=-


Poster
09924145fe8766c1bdc6f620da265123.jpg


iMDB
Imdb Picture Title: Kaala
Year: 2018
Runtime: 162 minutes
Votes: 1759
Rating: 8.5/10
Language: Tamil, Hindi, Telugu
Country: India
All Genres: Action, Crime, Drama
Plot Outline: Kaala is about the life of Nellai / Tirunelveli based Tamils who live in large number in Mumbai.
Tagline: Karikaalan
Director: Pa. Ranjith
Writing By: Shivgopal Krishna,Pa. Ranjith,Ranjeet Bahadur,M. Sreeramakrishna,Maginan,Aadhavan Theetchanya,
Produced By: Dhanush,Jairaj Parayan,
Music: Santhosh Narayanan
Cast:
Rajinikanth as Karikaalan
Nana Patekar as Harinath Desai
Samuthirakani as Anbu
Aruldoss as
Easwari Rao as Selvi
Huma Qureshi as Zareena
Anjali Patil as Puyal Charumathi Gaekwad
Sukanya as
Dileepan as
Aravind Akash as Shivaji Rao Gaekwad
Trailers:
Kaala Official Trailer



Details
Name:Kaala (2018) 720p UNCUT HDRip x264 Eng Subs [Dual Audio] [Hindi Org DD 2.0 - Telugu 2.0]  Exclusive By -=!ICTV!=-
Description:
Kaala (2018) 720p UNCUT HDRip x264 Eng Subs [Dual Audio] [Hindi Org DD 2.0 - Telugu 2.0]  Exclusive By -=!ICTV!=-

5bf558cefeb22eecc97b4a0b7a3b6cef.jpg
 
Format                                   : Matroska
Format version                           : Version 4 / Version 2
File size                                : 1.66 GiB
Duration                                 : 2 h 38 min
Overall bit rate                         : 1 500 kb/s
Encoded date                             : UTC 2018-07-29 14:14:58
Writing application                      : mkvmerge v23.0.0 ('The Bride Said No') 64-bit
Writing library                          : libebml v1.3.6 + libmatroska v1.4.9

Video
ID                                       : 1
Format                                   : AVC
Format/Info                              : Advanced Video Codec
Format profile                           : High@L4
Format settings                          : CABAC / 4 Ref Frames
Format settings, CABAC                   : Yes
Format settings, RefFrames               : 4 frames
Codec ID                                 : V_MPEG4/ISO/AVC
Duration                                 : 2 h 38 min
Bit rate                                 : 1 200 kb/s
Width                                    : 1 280 pixels
Height                                   : 544 pixels
Display aspect ratio                     : 2.35:1
Original display aspect ratio            : 2.35:1
Frame rate mode                          : Constant
Frame rate                               : 30.000 FPS
Color space                              : YUV
Chroma subsampling                       : 4:2:0
Bit depth                                : 8 bits
Scan type                                : Progressive
Bits/(Pixel*Frame)                       : 0.057
Stream size                              : 1.34 GiB (81%)
Writing library                          : x264 core 148 r2708 86b7198
Forced                                   : No
Color range                              : Limited
Color primaries                          : BT.709
Transfer characteristics                 : BT.709
Matrix coefficients                      : BT.709

Audio #1
ID                                       : 2
Format                                   : AAC
Format/Info                              : Advanced Audio Codec
Format profile                           : LC
Codec ID                                 : A_AAC-2
Duration                                 : 2 h 38 min
Bit rate                                 : 160 kb/s
Channel(s)                               : 2 channels
Channel positions                        : Front: L R
Sampling rate                            : 48.0 kHz
Frame rate                               : 46.875 FPS (1024 SPF)
Compression mode                         : Lossy
Delay relative to video                  : -21 ms
Stream size                              : 182 MiB (11%)
Language                                 : Hindi
Default                                  : Yes
Forced                                   : Yes

Audio #2
ID                                       : 3
Format                                   : AAC
Format/Info                              : Advanced Audio Codec
Format profile                           : LC
Codec ID                                 : A_AAC-2
Duration                                 : 2 h 38 min
Bit rate                                 : 128 kb/s
Channel(s)                               : 2 channels
Channel positions                        : Front: L R
Sampling rate                            : 48.0 kHz
Frame rate                               : 46.875 FPS (1024 SPF)
Compression mode                         : Lossy
Delay relative to video                  : -21 ms
Stream size                              : 146 MiB (9%)
Language                                 : Telugu
Default                                  : No
Forced                                   : No

Text
ID                                       : 4
Format                                   : UTF-8
Codec ID                                 : S_TEXT/UTF8
Codec ID/Info                            : UTF-8 Plain Text
Duration                                 : 2 h 35 min
Bit rate                                 : 68 b/s
Count of elements                        : 2859
Stream size                              : 78.0 KiB (0%)
Language                                 : English
Default                                  : Yes
Forced                                   : No

0Vz7J.th.png 0V2qD.th.png 0VU48.th.png 0VAbg.th.png 0VO8m.th.png 0VBy5.th.png
Category:Movies > Telugu
Lang:Telugu
Total Size:1.66 GB



|| Download This Movie Via Single Resumable Links Size: 1.66 GB ||

Direct-1 Google Drive | Direct-2 | Direct-3 |

Watch Online Click Here

Post a Comment

0 Comments