Crazy World Only 4 You

Sorry For The Inconvenience. If You are facing link dead or no google drive file access then inform us via comment

Latest Updates

Monday, 16 July 2018

Karenjit Kaur - The Untold Story of Sunny Leone (2018) Hindi S01 1080p WEB-DL H264 AAC 2.0 ESubs - DTOne


Poster
9e8b732195ea76dc883369b735b5240a.jpg


iMDB

Title: Karenjit Kaur - The Untold Story of Sunny Leone
Year: 2018
Language: English, Hindi
Country: India
All Genres: Biography
Plot Outline: The life story of Indian-Canadian actress and former adult film star, Sunny Leone.
Tagline: The untold story of Sunny Leone.
Director: Aditya Datt
Writing By: Niranjan Kaushik,Karan Shrikant Sharma,
Produced By: Kishor Arora,Akash Chawla,Shareen Mantri Kedia,Kanwal Kohli,Angarika Mantri,Sanjay Mehta,Arunava Sengupta,Amit Vij,Muhitt Agarwaal,
Music: Rachita Arora
Cast:
Bijay Jasjit Anand as 10 episodes, 2018
Raj Arjun as 10 episodes, 2018
Karamvir Lamba as 10 episodes, 2018
Sunny Leone as Herself 10 episodes, 2018
Vansh Pradhan as 10 episodes, 2018
Rysa Saujani as 10 episodes, 2018
Grusha Singh as 10 episodes, 2018
Marc Buckner as Daniel 3 episodes, 2018
Sujata Sehgal as Pammi Bua 3 episodes, 2018
Jan Bostock as owner of Penthouse 1 episode, 2018


Details
Name:Karenjit Kaur - The Untold Story of Sunny Leone (2018) Hindi S01 1080p WEB-DL H264 AAC 2.0 ESubs - DTOne
Description:
Karenjit Kaur - The Untold Story of Sunny Leone (2018) Hindi S01 1080p WEB-DL H264 AAC 2.0 ESubs - DTOne

44cfe0993b43e1f5eb2d1528fe09a02e.jpg

Specs

Source : ZEE5

 
File size : 400 ~ 500 MiB
Duration : 20 ~ 27 min
Overall bit rate : 3 000 kb/s
Episodes : 10

Format                                   : Matroska
Format version                           : Version 4 / Version 2
File size                                : 558 MiB
Duration                                 : 26 min 40 s
Overall bit rate                         : 2 926 kb/s
Movie name                               : Karenjit.Kaur.S01E03
Encoded date                             : UTC 2018-07-15 20:29:58
Writing application                      : mkvmerge v25.0.0 ('Prog Noir') 64-bit
Writing library                          : libebml v1.3.6 + libmatroska v1.4.9
Cover                                    : Yes
Attachments                              : Cover.jpg

Video
ID                                       : 1
Format                                   : AVC
Format/Info                              : Advanced Video Codec
Format profile                           : High@L4
Format settings                          : CABAC / 4 Ref Frames
Format settings, CABAC                   : Yes
Format settings, ReFrames                : 4 frames
Codec ID                                 : V_MPEG4/ISO/AVC
Duration                                 : 26 min 40 s
Bit rate                                 : 3 000 kb/s
Width                                    : 1 920 pixels
Height                                   : 1 080 pixels
Display aspect ratio                     : 16:9
Frame rate mode                          : Variable
Frame rate                               : 24.907 FPS
Color space                              : YUV
Chroma subsampling                       : 4:2:0
Bit depth                                : 8 bits
Scan type                                : Progressive
Bits/(Pixel*Frame)                       : 0.058
Stream size                              : 545 MiB (98%)
Writing library                          : x264 core 152 r2854 e9a5903
Default                                  : Yes
Forced                                   : No

Audio
ID                                       : 2
Format                                   : AAC
Format/Info                              : Advanced Audio Codec
Format profile                           : LC
Codec ID                                 : A_AAC-2
Duration                                 : 26 min 40 s
Bit rate                                 : 64.1 kb/s
Channel(s)                               : 2 channels
Channel positions                        : Front: L R
Sampling rate                            : 48.0 kHz
Frame rate                               : 46.875 FPS (1024 SPF)
Compression mode                         : Lossy
Delay relative to video                  : -80 ms
Stream size                              : 12.2 MiB (2%)
Language                                 : Hindi
Default                                  : Yes
Forced                                   : No

Text
ID                                       : 3
Format                                   : UTF-8
Codec ID                                 : S_TEXT/UTF8
Codec ID/Info                            : UTF-8 Plain Text
Duration                                 : 24 min 27 s
Bit rate                                 : 44 b/s
Count of elements                        : 222
Stream size                              : 8.03 KiB (0%)
Language                                 : English
Default                                  : Yes
Forced                                   : No


Screens:





A 10th Anniversary Special Exclusive Release... 
Category:TV > Indian
Lang:Hindi
Total Size:4.66 GB



|| Download This Tv Show Via Single Resumable Links Size: 4.66 GB ||

Direct-1 Google Drive |

  PassWord :- Sworld4u

2 comments: