Krampus (2015) BluRay 720p x264 [Dual Audio] [Hindi + English] AC3 DD-5.1 Esubs [PKG]


Poster
c1bee0c6339d103dd63a95bf959cce79.jpg


iMDB
Imdb Picture Title: Krampus
Year: 2015
Runtime: 98 minutes
Votes: 50200
Rating: 6.2/10
Language: English, German
Country: USA
All Genres: Comedy, Fantasy, Horror
Plot Outline: When his dysfunctional family clashes over the holidays, young Max (Emjay Anthony) is disillusioned and turns his back on Christmas. Little does he know, this lack of festive spirit has unleashed the wrath of Krampus: a demonic force of ancient evil intent on punishing non-believers. All hell breaks loose as beloved holiday icons take on a monstrous life of their own, laying siege to the fractured family's home and forcing them to fight for each other if they hope to survive.
Tagline: When the Christmas spirit is lost, he arrives.
Director: Michael Dougherty
Writing By: Todd Casey,Michael Dougherty,Zach Shields,
Produced By: Todd Casey,Michael Dougherty,Alex Garcia,Pamela Harvey-White,Jon Jashni,Zach Shields,Daniel M. Stillman,Thomas Tull,
Music: Douglas Pipes
Cast:
Emjay Anthony as Max
Adam Scott as Tom
Toni Collette as Sarah
Stefania LaVie Owen as Beth
Krista Stadler as Omi
Conchata Ferrell as Aunt Dorothy
Allison Tolman as Linda
David Koechner as Howard
Maverick Flack as Howie, Jr
Queenie Samuel as Jordan
Trailers:
Trailer #1



Details
Name:This Is 40 (2012) BluRay 720p Dual Audio [Eng-Hindi] XviD DD 5.1 [Team SSX]
Description:
Krampus (2015) 720p Blu-Ray x264 [Dual-Audio] [Hindi 5.1 + English 5.1] Esubs [PKG]
 
11fd295e86f0beab7044017131e523e5.jpg
 
Format : Matroska
Format version : Version 4 / Version 2
File size : 977 MiB
Duration : 1h 37mn
Overall bit rate : 1 399 Kbps
Movie name : Krampus (2015) 720p Blu-Ray x264
 [Dual-Audio] [Hindi 5.1 + English 5.1] Esubs [PKG]
Encoded date : UTC 2016-04-22 09:58:58
Writing application : mkvmerge v8.9.0 ('Father Daughter') 64bit
Writing library : libebml v1.3.3 + libmatroska v1.4.4
DURATION : 01:31:32.458000000
NUMBER_OF_FRAMES : 855
NUMBER_OF_BYTES : 31259

Video
ID : 1
Format : AVC
Format/Info : Advanced Video Codec
Format profile : High@L4.1
Format settings, CABAC : Yes
Format settings, ReFrames : 5 frames
Codec ID : V_MPEG4/ISO/AVC
Duration : 1h 37mn
Bit rate : 949 Kbps
Width : 1 280 pixels
Height : 536 pixels
Display aspect ratio : 2.40:1
Frame rate mode : Constant
Frame rate : 23.976 fps
Color space : YUV
Chroma subsampling : 4:2:0
Bit depth : 8 bits
Scan type : Progressive
Bits/(Pixel*Frame) : 0.058
Stream size : 645 MiB (66%)
Title : [PKG]
Writing library : x264 core 148 r2638 7599210
Default : Yes
Forced : No
Color primaries : BT.709
Matrix coefficients : BT.709
Color range : Limited

Audio #1
ID : 2
Format : AC-3
Format/Info : Audio Coding 3
Mode extension : CM (complete main)
Format settings, Endianness : Big
Codec ID : A_AC3
Duration : 1h 37mn
Bit rate mode : Constant
Bit rate : 224 Kbps
Channel(s) : 6 channels
Channel positions : Front: L C R, Side: L R, LFE
Sampling rate : 48.0 KHz
Bit depth : 16 bits
Compression mode : Lossy
Stream size : 156 MiB (16%)
Title : [PKG]
Language : Hindi
Default : Yes
Forced : No

Audio #2
ID : 3
Format : AC-3
Format/Info : Audio Coding 3
Mode extension : CM (complete main)
Format settings, Endianness : Big
Codec ID : A_AC3
Duration : 1h 37mn
Bit rate mode : Constant
Bit rate : 224 Kbps
Channel(s) : 6 channels
Channel positions : Front: L C R, Side: L R, LFE
Sampling rate : 48.0 KHz
Bit depth : 16 bits
Compression mode : Lossy
Stream size : 156 MiB (16%)
Title : [PKG]
Language : English
Default : No
Forced : No

Text
ID : 4
Format : UTF-8
Codec ID : S_TEXT/UTF8
Codec ID/Info : UTF-8 Plain Text
Title : [PKG]
Language : English
Default : Yes
Forced : No 
 
Krampus_2015_720p_Hi-En_By_-Sworld4ufree.Blogspot.Com.jpg
Category:Movies > Hollywood Dub
Lang:Hindi
Total Size:981.76 MB



|| Download This Movie Via Single Resumable Links Size: 977 MB ||

Direct-1 Google Drive | Direct-2 | Direct-3 |

Watch Online Click Here

Post a Comment

0 Comments