Crazy World Only 4 You

Sorry For The Inconvenience. If You are facing link dead or no google drive file access then inform us via comment

Latest Updates

Saturday, 28 July 2018

Laali Ki Shaadi Mein Laaddoo Deewana (2017) Hindi 720p HDTV x264 AAC DD 2.0 Team Jio Exclusive


Poster
d1e05b64dd9dce552eb644ff7ebcf20f.jpg


iMDB
Imdb Picture Title: Laali Ki Shaadi Mein Laaddoo Deewana
Year: 2017
Runtime: 130 minutes
Votes: 33
Rating: 6.7/10
Language: Hindi
Country: India
All Genres: Comedy, Drama, Musical, Romance
Plot Outline: Laali and Ladoo get trapped in a royal wedding that takes place in Vadodara.
Director: Manish Harishankar
Writing By: Manish Harishankar,
Produced By: Rahul Aggarwal,T.P. Aggarwal,Vishal Singh,Ajay Soni,
Plot:
Laali and Ladoo get trapped in a royal wedding that takes place in Vadodara.

Cast:
Gurmeet Choudhary as Veer
Akshara Haasan as Laali
Darshan Jariwala as
Ravi Kishan as
Sanjay Mishra as Kabir
Suhasini Mulay as
Muneesh Sappel as Pandit Janarden
Vivaan Shah as Laaddoo
Saurabh Shukla as
Kavitta Verma as Palak



Details
Name:Laali Ki Shaadi Mein Laaddoo Deewana (2017) Hindi 720p HDTV AVC DD 2.0 Team Jio Exclusive
Description:
Laali Ki Shaadi Mein Laaddoo Deewana (2017) Hindi 720p HDTV AVC DD 2.0 Team Jio Exclusive

d1e05b64dd9dce552eb644ff7ebcf20f.jpg



Format                                   : MPEG-4
Format profile                           : Base Media
Codec ID                                 : isom (isom/iso2/avc1/mp41)
File size                                : 1.32 GiB
Duration                                 : 2 h 4 min
Overall bit rate                         : 1 523 kb/s
Writing application                      : Lavf58.12.100

Video
ID                                       : 1
Format                                   : AVC
Format/Info                              : Advanced Video Codec
Format profile                           : High@L3.1
Format settings                          : CABAC / 4 Ref Frames
Format settings, CABAC                   : Yes
Format settings, ReFrames                : 4 frames
Codec ID                                 : avc1
Codec ID/Info                            : Advanced Video Coding
Duration                                 : 2 h 4 min
Bit rate                                 : 1 386 kb/s
Width                                    : 1 274 pixels
Height                                   : 720 pixels
Display aspect ratio                     : 16:9
Frame rate mode                          : Constant
Frame rate                               : 25.000 FPS
Color space                              : YUV
Chroma subsampling                       : 4:2:0
Bit depth                                : 8 bits
Scan type                                : Progressive
Bits/(Pixel*Frame)                       : 0.060
Stream size                              : 1.20 GiB (91%)
Writing library                          : x264 core 148 r2643 5c65704

Audio
ID                                       : 2
Format                                   : AAC
Format/Info                              : Advanced Audio Codec
Format profile                           : LC
Codec ID                                 : mp4a-40-2
Duration                                 : 2 h 4 min
Bit rate mode                            : Constant
Bit rate                                 : 128 kb/s
Channel(s)                               : 2 channels
Channel(s)_Original                      : 1 channel
Channel positions                        : Front: C
Sampling rate                            : 44.1 kHz
Frame rate                               : 43.066 FPS (1024 SPF)
Compression mode                         : Lossy
Stream size                              : 114 MiB (8%)
Title                                    : Track1
Default                                  : Yes
Alternate group                          : 1



0tDEt.th.png 0tVxd.th.png 0tmRE.th.png 0twM9.th.png 0tjP8.th.png 0tlfJ.th.png 0tbO5.th.png 0ttjD.th.png 0tCIg.th.png 0tEmm.th.png 0tNSA.th.png 0t3Me.th.png 0tpxR.th.png 0t4NU.th.png
Category:Movies > Bollywood
Lang:Hindi
Total Size:1.32 GB



|| Download This Movie Via Single Resumable Links Size: 1.32 GB ||

Direct-1 Google Drive | Direct-2 | Direct-3 |

Watch Online Click Here

No comments:

Post a Comment