Laali Ki Shaadi Mein Laaddoo Deewana (2017) Hindi 1080p HDTV AVC DD 2.0 Team Jio Exclusive


Poster
d1e05b64dd9dce552eb644ff7ebcf20f.jpg


iMDB
Imdb Picture Title: Laali Ki Shaadi Mein Laaddoo Deewana
Year: 2017
Runtime: 130 minutes
Votes: 33
Rating: 6.7/10
Language: Hindi
Country: India
All Genres: Comedy, Drama, Musical, Romance
Plot Outline: Laali and Ladoo get trapped in a royal wedding that takes place in Vadodara.
Director: Manish Harishankar
Writing By: Manish Harishankar,
Produced By: Rahul Aggarwal,T.P. Aggarwal,Vishal Singh,Ajay Soni,
Plot:
Laali and Ladoo get trapped in a royal wedding that takes place in Vadodara.

Cast:
Gurmeet Choudhary as Veer
Akshara Haasan as Laali
Darshan Jariwala as
Ravi Kishan as
Sanjay Mishra as Kabir
Suhasini Mulay as
Muneesh Sappel as Pandit Janarden
Vivaan Shah as Laaddoo
Saurabh Shukla as
Kavitta Verma as Palak



Details
Name:Laali Ki Shaadi Mein Laaddoo Deewana 2017 1080p HDTV AVC DD 2.0 Team Jio Exclusive
Description:
Laali Ki Shaadi Mein Laaddoo Deewana (2017) Hindi 1080p HDTV AVC DD 2.0 Team Jio Exclusive

d1e05b64dd9dce552eb644ff7ebcf20f.jpg



Format                                   : MPEG-4
Format profile                           : Base Media
Codec ID                                 : isom (isom/iso2/avc1/mp41)
File size                                : 4.04 GiB
Duration                                 : 2 h 41 min
Overall bit rate mode                    : Variable
Overall bit rate                         : 3 582 kb/s
Writing application                      : Lavf58.17.100

Video
ID                                       : 1
Format                                   : AVC
Format/Info                              : Advanced Video Codec
Format profile                           : High@L4.1
Format settings                          : CABAC / 4 Ref Frames
Format settings, CABAC                   : Yes
Format settings, ReFrames                : 4 frames
Codec ID                                 : avc1
Codec ID/Info                            : Advanced Video Coding
Duration                                 : 2 h 41 min
Bit rate mode                            : Variable
Bit rate                                 : 3 500 kb/s
Width                                    : 1 920 pixels
Height                                   : 1 080 pixels
Display aspect ratio                     : 16:9
Frame rate mode                          : Variable
Frame rate                               : 24.938 FPS
Minimum frame rate                       : 0.083 FPS
Maximum frame rate                       : 25.000 FPS
Original frame rate                      : 25.000 FPS
Standard                                 : Component
Color space                              : YUV
Chroma subsampling                       : 4:2:0
Bit depth                                : 8 bits
Scan type                                : Progressive
Bits/(Pixel*Frame)                       : 0.068
Stream size                              : 3.93 GiB (97%)
Color range                              : Limited
Color primaries                          : BT.709
Transfer characteristics                 : BT.709
Matrix coefficients                      : BT.709

Audio
ID                                       : 2
Format                                   : AAC
Format/Info                              : Advanced Audio Codec
Format profile                           : LC
Codec ID                                 : mp4a-40-2
Duration                                 : 2 h 41 min
Bit rate mode                            : Constant
Bit rate                                 : 93.1 kb/s
Channel(s)                               : 2 channels
Channel positions                        : Front: L R
Sampling rate                            : 48.0 kHz
Frame rate                               : 46.875 FPS (1024 SPF)
Compression mode                         : Lossy
Stream size                              : 108 MiB (3%)
Default                                  : Yes
Alternate group                          : 1



945933118369a3631426013cd0175077.th.png c49aea71fc8a84146122446d2e89574a.th.png 95993a3cd027d2a37a0a1c73c1514a2d.th.png 2e0e46d30668060faef3e7d198fd7f44.th.png 750149a74a21bd1394ed3f51a08dd84f.th.png 5234b8f78231b6a6b8abde5679cc73f2.th.png c6b3f3f15e492cd8c924a568c53a8d49.th.png d42e7c13dca539721d4cfa1efcf93bbc.th.png
Category:Movies > Bollywood
Lang:Hindi
Total Size:4.04 GB



|| Download This Movie Via Single Resumable Links Size: 4.04 GB ||

Direct-1 Google Drive | Direct-2 | Direct-3 |

Watch Online Click Here

Post a Comment

0 Comments