Crazy World Only 4 You

Sorry For The Inconvenience. If You are facing link dead or no google drive file access then inform us via comment

Latest Updates

Tuesday, 10 July 2018

Love Ni Bhavai (2017) Gujarati 720p UntoucheD NF WEB-DL DD 5.1 FLASH KartiKing [EXCLUSIVE]


Poster


iMDB
Imdb Picture Title: Love Ni Bhavai
Year: 2017
Runtime: 146 minutes
Votes: 368
Rating: 8.9/10
Language: Gujarati
Country: India
All Genres: Romance
Plot Outline: A popular radio personality with an aversion to love meets two men with differing views on romance.
Director: Saandeep Patel
Writing By: Nehal Bakshi,Mitai Shukla,
Produced By: Aarti Patel,
Music: Sachin Sanghvi Jigar Saraiya
Cast:
Malhar Thakar as Sagar
Pratik Gandhi as Aaditya
Aarohi Patel as Antara


Details
Name:Love Ni Bhavai (2017) GUJARATI 720p Untouched NF WEB-DL DD5.1 FLASH KartiKing [EXCLUSIVE]
Description:
Love Ni Bhavai (2017) GUJARATI 720p Untouched NF WEB-DL DD5.1 FLASH KartiKing [EXCLUSIVE]
 

 

 
-: Mediainfo :-

Format                                   : Matroska
Format version                           : Version 4 / Version 2
File size                                : 2.33 GiB
Duration                                 : 2 h 44 min
Overall bit rate                         : 2 029 kb/s

Video
ID                                       : 1
Format                                   : AVC
Format/Info                              : Advanced Video Codec
Format profile                           : Main@L3.1
Format settings                          : CABAC / 2 Ref Frames
Format settings, CABAC                   : Yes
Format settings, RefFrames               : 2 frames
Format settings, GOP                     : M=1, N=12
Codec ID                                 : V_MPEG4/ISO/AVC
Duration                                 : 2 h 42 min
Bit rate                                 : 1 853 kb/s
Width                                    : 1 280 pixels
Height                                   : 720 pixels
Display aspect ratio                     : 16:9
Frame rate mode                          : Constant
Frame rate                               : 24.000 FPS
Color space                              : YUV
Chroma subsampling                       : 4:2:0
Bit depth                                : 8 bits
Scan type                                : Progressive
Bits/(Pixel*Frame)                       : 0.084
Stream size                              : 2.11 GiB (90%)
Default                                  : Yes
Forced                                   : No

Audio
ID                                       : 2
Format                                   : E-AC-3
Format/Info                              : Enhanced Audio Coding 3
Codec ID                                 : A_EAC3
Duration                                 : 2 h 44 min
Bit rate mode                            : Constant
Bit rate                                 : 192 kb/s
Channel(s)                               : 6 channels
Channel positions                        : Front: L C R, Side: L R, LFE
Sampling rate                            : 48.0 kHz
Frame rate                               : 187.500 FPS (256 SPF)
Compression mode                         : Lossy
Delay relative to video                  : -42 ms
Stream size                              : 226 MiB (9%)
Language                                 : Gujarati
Service kind                             : Complete Main
Default                                  : Yes
Forced                                   : No

Text
ID                                       : 3
Format                                   : UTF-8
Codec ID                                 : S_TEXT/UTF8
Codec ID/Info                            : UTF-8 Plain Text
Duration                                 : 2 h 39 min
Bit rate                                 : 62 b/s
Count of elements                        : 2370
Stream size                              : 72.7 KiB (0%)
Language                                 : English
Default                                  : No
Forced                                   : No


-: SCREENSHOTS :-



 
 
 
Category:Movies > WEB-HD
Lang:Gujarati
Total Size:2.33 GB



|| Download This Movie Via Single Resumable Links Size: 2.33 GB ||

Direct-1 Google Drive | Direct-2 | Direct-3 |

Watch Online Click Here

No comments:

Post a Comment