Mah e Mir (2016) Urdu 1080p WEB-DL AVC AAC DD 2.0 Team Jio Exclusive


Poster


iMDB
Imdb Picture Title: Mah e Mir
Year: 2016
Runtime: 146 minutes
Votes: 375
Rating: 7.7/10
Language: Urdu
Country: Pakistan
All Genres: Biography, Drama, Romance
Plot Outline: A modern poet Jamal who is against the traditional Urdu Poetry reads the biography of Mir Taqi Mir,one of the greatest poets of the 18th century. And sees Mir's reflection on his personality.
Director: Anjum Shahzad
Writing By: Sarmad Sehbai,
Produced By: Khurram Rana,Sahir Rasheed,
Cast:
Iman Ali as Mahtab
Syed Fazal Hussain as
Alyy Khan as Nawab Sahab
Fahad Mustafa as Jamal
Sanam Saeed as Naina Kanwal
Manzar Sehbai as Dr. Kareem


Details
Name:Mah e Mir (2016) Urdu 1080p WEB-DL AVC AAC DD 2.0 Team Jio Exclusive
Description:
Mah e Mir (2016) Urdu 1080p WEB-DL AVC AAC DD 2.0 Team Jio Exclusive



Format                                   : MPEG-4
Format profile                           : Base Media
Codec ID                                 : isom (isom/iso2/avc1/mp41)
File size                                : 1.38 GiB
Duration                                 : 2 h 29 min
Overall bit rate mode                    : Variable
Overall bit rate                         : 1 324 kb/s
Encoded date                             : UTC 2018-06-29 20:50:10
Tagged date                              : UTC 2018-06-29 20:50:10

Video
ID                                       : 1
Format                                   : AVC
Format/Info                              : Advanced Video Codec
Format profile                           : High@L4
Format settings                          : CABAC / 3 Ref Frames
Format settings, CABAC                   : Yes
Format settings, ReFrames                : 3 frames
Codec ID                                 : avc1
Codec ID/Info                            : Advanced Video Coding
Duration                                 : 2 h 29 min
Bit rate                                 : 1 195 kb/s
Width                                    : 1 920 pixels
Height                                   : 1 080 pixels
Display aspect ratio                     : 16:9
Frame rate mode                          : Constant
Frame rate                               : 24.000 FPS
Color space                              : YUV
Chroma subsampling                       : 4:2:0
Bit depth                                : 8 bits
Scan type                                : Progressive
Bits/(Pixel*Frame)                       : 0.024
Stream size                              : 1.24 GiB (90%)
Encoded date                             : UTC 2018-06-29 20:50:10
Tagged date                              : UTC 2018-06-29 20:50:10
Color range                              : Limited
Color primaries                          : BT.709
Transfer characteristics                 : BT.709
Matrix coefficients                      : BT.709

Audio
ID                                       : 2
Format                                   : AAC
Format/Info                              : Advanced Audio Codec
Format profile                           : LC
Codec ID                                 : mp4a-40-2
Duration                                 : 2 h 29 min
Bit rate mode                            : Variable
Bit rate                                 : 126 kb/s
Channel(s)                               : 2 channels
Channel positions                        : Front: L R
Sampling rate                            : 44.1 kHz
Frame rate                               : 43.066 FPS (1024 SPF)
Compression mode                         : Lossy
Stream size                              : 134 MiB (9%)
Language                                 : English
Default                                  : Yes
Alternate group                          : 1
Encoded date                             : UTC 2018-06-29 21:09:19
Tagged date                              : UTC 2018-06-29 21:09:19


Category:Movies > Pakistani
Lang:Hindi
Total Size:1.38 GB



|| Download This Movie Via Single Resumable Links Size: 1.38 GB ||

Direct-1 Google Drive | Direct-2 | Direct-3 |

Watch Online Click Here

Post a Comment

0 Comments