Nanak Shah Fakir (2014) Punjabi 720p Itunes-DL x264 AAC 2.0 Team Jio Exclusive


Poster


iMDB
Imdb Picture Title: Nanak Shah Fakir
Year: 2014
Runtime: 146 minutes
Votes: 174
Rating: 9.0/10
All Genres: Drama
Plot Outline: Nanak Shah Fakir, the film has been a meditation of each waking day that began as a dream I saw one particular night. The film is named on the life and teachings of Guru Nanak. Born in 1469 A.D. Guru Nanak traveled the world to spread the essence of 'Ik Onkar' (there's but One God) as a way of life. The film, follows the great saint on an epic journey across the globe, spreading the Lord's message of equality, peace and 'Ik Onkar'. It's a first-of-its-kind film in about 600 years of Sikh history, and has been depicted through the voice of his friend, companion and disciple 'Bhai Mardana'. Guru Nanak was referred to as 'Shah' by the Muslims and 'Fakir' by the Hindus, the highest honor given in both religions and hence came to be known as 'Nanak Shah Fakir'. - Harinder S. Sikka Producer Written by Samar Sikka

Produced By: Gaurav Sharma Gabbar,Resul Pookutty,Harinder S. Sikka,Samar Sikka,Pooja Verma,
Music: Tuomas Kantelinen A.R. Rahman
Cast:
Arif Zakaria as Bhai Mardana
Puneet Sikka as Bebe Nanaki
Adil Hussain as Rai Bullar
Anurag Arora as Kalu Mehta
Shradha Kaul as Guru Nanak' mother
Mrigendra Konwar as Prince of Jagannath
Trailers:
Nanak Shah Fakir 2018 - Official Trailer



Details
Name:Nanak Shah Fakir [Punjabi] x264 720p HD Itunes DL Rip AVC DD 2.0 Team Jio Exclusive
Description:
Nanak Shah Fakir (2014) Punjabi 720p Itunes-DL x264 AAC 2.0 Team Jio Exclusive





Format                                   : MPEG-4
Format profile                           : Base Media
Codec ID                                 : isom (isom/iso2/avc1/mp41)
File size                                : 1.16 GiB
Duration                                 : 2 h 17 min
Overall bit rate                         : 1 210 kb/s
Movie name                               : Nanak Shah Fakir
Performer                                : Unknown
Genre                                    : Bollywood
Description                              : Nanak Shah Fakir is named after and on the life and teachings of Guru Nanak, the founder of the Sikh
Recorded date                            : UTC 2018-04-13 07:00:00
Writing application                      : Lavf58.12.100

Video
ID                                       : 1
Format                                   : AVC
Format/Info                              : Advanced Video Codec
Format profile                           : High@L3.1
Format settings                          : CABAC / 4 Ref Frames
Format settings, CABAC                   : Yes
Format settings, ReFrames                : 4 frames
Codec ID                                 : avc1
Codec ID/Info                            : Advanced Video Coding
Duration                                 : 2 h 17 min
Bit rate                                 : 1 136 kb/s
Width                                    : 1 280 pixels
Height                                   : 538 pixels
Display aspect ratio                     : 2.40:1
Original display aspect ratio            : 2.40:1
Frame rate mode                          : Constant
Frame rate                               : 25.000 FPS
Color space                              : YUV
Chroma subsampling                       : 4:2:0
Bit depth                                : 8 bits
Scan type                                : Progressive
Bits/(Pixel*Frame)                       : 0.066
Stream size                              : 1.08 GiB (93%)
Writing library                          : x264 core 148 r2643 5c65704

Audio
ID                                       : 2
Format                                   : AAC
Format/Info                              : Advanced Audio Codec
Format profile                           : LC
Codec ID                                 : mp4a-40-2
Duration                                 : 2 h 17 min
Duration_LastFrame                       : -18 ms
Bit rate mode                            : Constant
Bit rate                                 : 80.0 kb/s
Channel(s)                               : 2 channels
Channel(s)_Original                      : 1 channel
Channel positions                        : Front: C
Sampling rate                            : 44.1 kHz
Frame rate                               : 43.066 FPS (1024 SPF)
Compression mode                         : Lossy
Stream size                              : 78.6 MiB (7%)
Language                                 : Hindi
Default                                  : Yes
Alternate group                          : 1
Menus                                    : 3

Menu #1
ID                                       : 3
Codec ID                                 : text
Duration                                 : 2 h 17 min
Language                                 : English
Menu For                                 : 1,2
00:00:00.000                             : 1
00:04:30.875                             : 2
00:17:07.333                             : 3
00:57:27.917                             : 4
01:04:34.833                             : 5
01:10:04.292                             : 6
01:43:38.292                             : 7
01:49:02.708                             : 8
01:56:24.417                             : 9
02:07:27.500                             : 10
Bit rate mode                            : VBR

Menu #2
00:00:00.000                             : 1
00:04:30.875                             : 2
00:17:07.333                             : 3
00:57:27.917                             : 4
01:04:34.833                             : 5
01:10:04.292                             : 6
01:43:38.292                             : 7
01:49:02.708                             : 8
01:56:24.417                             : 9
02:07:27.500                             : 10



  0hHlc.th.png 0TPzE.th.png 0hIJz.th.png 0hag3.th.png 0hr6M.th.png 0hysv.th.png 0TZn9.th.png 0TQYd.th.png 0TUT8.th.png 0T7Qt.th.png
Category:Movies > HDRips
Lang:Punjabi
Total Size:1.16 GB



|| Download This Movie Via Single Resumable Links Size: 1.16 GB ||

Direct-1 Google Drive | Direct-2 | Direct-3 |

Watch Online Click Here

Post a Comment

0 Comments