Parmanu: The Story of Pokhran (2018) Hindi 1080p WEB-DL H264 AAC 2.0 ~ KartiKing ~


Poster
a89aa98c380eb08c7893a5a1fe8fdbbe.jpg


iMDB
Imdb Picture Title: Parmanu: The Story of Pokhran
Year: 2018
Runtime: 129 minutes
Votes: 121
Rating: 8.9/10
Language: Hindi
Country: India
All Genres: Action, Drama, History, Thriller
Plot Outline: A look at India's first confidential nuclear test series at Pokhran lead by Dr. APJ Abdul Kalam, during the time of PM Atal Bihari Vajpayee's tenure.
Director: Abhishek Sharma
Writing By: Sanyukta Shaikh Chawla,Saiwyn Quadras,Abhishek Sharma,
Produced By: John Abraham,Nishant Pitti,Dharam Soni,
Music: Sandeep Chowta
Cast:
John Abraham as
Diana Penty as
Boman Irani as
Zachary Coffin as Stephen
Aditya Hitkari as
Abhiroy Singh as
Mark Bennington as Daniel
Arush Nand as Prahlad
Yogendra Tikku as
Rohan Khatri as Sardaar Driver

Details
Name:Parmanu: The Story of Pokhran (2018) Hindi 1080p WEB-DL H264 AAC 2.0 ~ KartiKing  ~
Description:
Parmanu - The Story Of Pokhran (2018) Untouched 1080p WEB-DL Hindi x264 AAC ~ KartiKing [EXCLUSIVE]
 

a89aa98c380eb08c7893a5a1fe8fdbbe.jpg

Format                      : Matroska
Format version              : Version 4 / Version 2
File size                   : 2.65 GiB
Duration                    : 2 h 4 min
Overall bit rate            : 3 052 kb/s

Video
ID                          : 1
Format                      : AVC
Format/Info                 : Advanced Video Codec
Format profile              : High@L4
Format settings             : CABAC / 4 Ref Frames
Format settings, CABAC      : Yes
Format settings, ReFrames   : 4 frames
Codec ID                    : V_MPEG4/ISO/AVC
Duration                    : 2 h 4 min
Bit rate                    : 3 000 kb/s
Width                       : 1 920 pixels
Height                      : 1 080 pixels
Display aspect ratio        : 16:9
Frame rate mode             : Variable
Frame rate                  : 24.819 FPS
Color space                 : YUV
Chroma subsampling          : 4:2:0
Bit depth                   : 8 bits
Scan type                   : Progressive
Bits/(Pixel*Frame)          : 0.058
Stream size                 : 2.59 GiB (98%)
Default                     : Yes
Forced                      : No

Audio
ID                          : 2
Format                      : AAC
Format/Info                 : Advanced Audio Codec
Format profile              : LC
Codec ID                    : A_AAC-2
Duration                    : 2 h 4 min
Bit rate                    : 64.3 kb/s
Channel(s)                  : 2 channels
Channel positions           : Front: L R
Sampling rate               : 48.0 kHz
Frame rate                  : 46.875 FPS (1024 SPF)
Compression mode            : Lossy
Delay relative to video     : -80 ms
Stream size                 : 57.2 MiB (2%)
Default                     : Yes
Forced                      : No
 
-: SCREENSHOTS :-


 
 
 
  
Category:Movies > Bollywood
Lang:Hindi
Total Size:2.67 GB





|| Download This Movie Via Single Resumable Links Size: 2.65 GB ||

Direct-1 Google Drive | Direct-2 | Direct-3 |

Watch Online Click Here

Post a Comment

0 Comments