Super Singh (2017) Hindi 720p HDRip x264 AAC [MovCr]


Poster


iMDB
Imdb Picture Title: Super Singh
Year: 2017
Runtime: 155 minutes
Votes: 342
Rating: 6.9/10
Language: Panjabi
Country: India
All Genres: Action, Comedy, Fantasy, Romance
Plot Outline: A man's life changes after he unknowingly gets super powers and then embarks on a journey that helps him discover the true meaning of love, life, courage, sacrifice, and his role in the world.
Tagline: Ikk Taa Assi Singh Utton Super!!
Director: Anurag Singh
Writing By: Anurag Singh,Dheeraj Rattan,Anurag Singh,Jagdeep Singh,Rupinder Inderjit,Anurag Singh,
Produced By: Aman Gill,Karan Gill,Pawan Gill,Gurpreet Singh Gyani,Ekta Kapoor,Shobha Kapoor,Marjorie Langevin,Rupesh Mali,Sameer Nair,Sakett Saawhney,Anurag Singh,
Music: Jatinder Shah
Cast:
Diljit Dosanjh as Sajjan
Sonam Bajwa as Twinkle
Pavan Malhotra as Sant Rehmat Singh
Alexandra Bandean as Cathy
Navnindra Behl as
Alex Dorantes as Mark
Rana Ranbir as
Meherbaan Singh as Happy
Jennifer Davos as Ustad's Mother
Dominic Hardy as Violent thief


Details
Name:Super Singh (2017) Hindi 720p HDRip x264 AAC [MovCr]
Description:
Super Singh (2017) Hindi 720p Original HDRip x264 AAC 1.1GB [MovCr]


 


Format                      : Matroska
Format version              : Version 4 / Version 2
File size                   : 1.06 GiB
Duration                    : 2 h 28 min
Overall bit rate            : 1 021 kb/s


Video
ID                          : 1
Format                      : AVC
Format/Info                 : Advanced Video Codec
Format profile              : Main@L3.1
Format settings, CABAC      : Yes
Format settings, ReFrames   : 2 frames
Format settings, GOP        : M=1, N=25
Codec ID                    : V_MPEG4/ISO/AVC
Duration                    : 2 h 28 min
Bit rate                    : 920 kb/s
Width                       : 1 280 pixels
Height                      : 544 pixels
Display aspect ratio        : 2.35:1
Frame rate mode             : Constant
Frame rate                  : 25.000 FPS
Color space                 : YUV
Chroma subsampling          : 4:2:0
Bit depth                   : 8 bits
Scan type                   : Progressive
Bits/(Pixel*Frame)          : 0.053
Stream size                 : 974 MiB (90%)
Default                     : Yes
Forced                      : No

Audio
ID                          : 2
Format                      : AAC
Format/Info                 : Advanced Audio Codec
Format profile              : LC
Codec ID                    : A_AAC
Duration                    : 2 h 28 min
Bit rate                    : 98.9 kb/s
Channel(s)                  : 2 channels
Channel positions           : Front: L R
Sampling rate               : 48.0 kHz
Frame rate                  : 46.875 FPS (1024 spf)
Compression mode            : Lossy
Stream size                 : 105 MiB (10%)
Language                    : Hindi
Default                     : Yes
Forced                      : No


 
 
 
 
 
 
 
 
 
Category:Movies > Bollywood
Lang:Hindi
Total Size:1.06 GB



|| Download This Movie Via Single Resumable Links Size: 1.06 GB ||

Direct-1 Google Drive | Direct-2 | Direct-3 |

Watch Online Click Here

Post a Comment

0 Comments