Crazy World Only 4 You

Sorry For The Inconvenience. If You are facing link dead or no google drive file access then inform us via comment

Latest Updates

Tuesday, 31 July 2018

Super Singh (2017) Punjabi 1080p WEB-DL AVC AAC DD 2.0 Team Jio Exclusive


Poster


iMDB
Imdb Picture Title: Super Singh
Year: 2017
Runtime: 155 minutes
Votes: 342
Rating: 6.9/10
Language: Panjabi
Country: India
All Genres: Action, Comedy, Fantasy, Romance
Plot Outline: A man's life changes after he unknowingly gets super powers and then embarks on a journey that helps him discover the true meaning of love, life, courage, sacrifice, and his role in the world.
Tagline: Ikk Taa Assi Singh Utton Super!!
Director: Anurag Singh
Writing By: Anurag Singh,Dheeraj Rattan,Anurag Singh,Jagdeep Singh,Rupinder Inderjit,Anurag Singh,
Produced By: Aman Gill,Karan Gill,Pawan Gill,Gurpreet Singh Gyani,Ekta Kapoor,Shobha Kapoor,Marjorie Langevin,Rupesh Mali,Sameer Nair,Sakett Saawhney,Anurag Singh,
Music: Jatinder Shah
Cast:
Diljit Dosanjh as Sajjan
Sonam Bajwa as Twinkle
Pavan Malhotra as Sant Rehmat Singh
Alexandra Bandean as Cathy
Navnindra Behl as
Alex Dorantes as Mark
Rana Ranbir as
Meherbaan Singh as Happy
Jennifer Davos as Ustad's Mother
Dominic Hardy as Violent thief


Details
Name:Super Singh (2017) Punjabi 1080p WEB-DL AVC AAC DD 2.0 Team Jio Exclusive
Description:
Super Singh (2017) Punjabi 1080p WEB-DL AVC AAC DD 2.0 Team Jio Exclusive






Format                                   : MPEG-4
Format profile                           : Base Media
Codec ID                                 : isom (isom/iso2/avc1/mp41)
File size                                : 3.22 GiB
Duration                                 : 2 h 28 min
Overall bit rate                         : 3 093 kb/s
Writing application                      : Lavf56.40.101

Video
ID                                       : 1
Format                                   : AVC
Format/Info                              : Advanced Video Codec
Format profile                           : High@L4
Format settings                          : CABAC / 4 Ref Frames
Format settings, CABAC                   : Yes
Format settings, ReFrames                : 4 frames
Codec ID                                 : avc1
Codec ID/Info                            : Advanced Video Coding
Duration                                 : 2 h 28 min
Bit rate                                 : 3 000 kb/s
Width                                    : 1 920 pixels
Height                                   : 1 080 pixels
Display aspect ratio                     : 16:9
Frame rate mode                          : Constant
Frame rate                               : 25.000 FPS
Color space                              : YUV
Chroma subsampling                       : 4:2:0
Bit depth                                : 8 bits
Scan type                                : Progressive
Bits/(Pixel*Frame)                       : 0.058
Stream size                              : 3.14 GiB (98%)
Writing library                          : x264 core 152 r2854 e9a5903

Audio
ID                                       : 2
Format                                   : AAC
Format/Info                              : Advanced Audio Codec
Format profile                           : LC
Codec ID                                 : mp4a-40-2
Duration                                 : 2 h 28 min
Bit rate mode                            : Constant
Bit rate                                 : 64.0 kb/s
Channel(s)                               : 2 channels
Channel positions                        : Front: L R
Sampling rate                            : 48.0 kHz
Frame rate                               : 46.875 FPS (1024 SPF)
Compression mode                         : Lossy
Stream size                              : 68.1 MiB (2%)
Default                                  : Yes
Alternate group                          : 1




 
 
 
 
 
 
 
 
 
 
 
 
 
Category:Movies > Punjabi
Lang:Punjabi
Total Size:3.22 GB



|| Download This Movie Via Single Resumable Links Size: 3.22 GB ||

Direct-1 Google Drive | Direct-2 | Direct-3 |

Watch Online Click Here

No comments:

Post a Comment