The Indian Post Graduate (2018) Hindi 720p HDRip x264 AAC 950MB

Poster
aa43dc090e2bd42dd1fcd37ed6752ef7.jpg


iMDB
Imdb Picture Title: The Indian Post Graduate
Year: 2018
Runtime: 105 minutes
Language: Hindi
Country: India
Plot Outline: Sudheer, a young M.A degree holder, prepares for civil services and lives in Allahabad. He drops his studies due to economical crisis and moves to Mumbai to support his poor farmer father. Sudheer has been rejected from all interviews because he had not any professional education or experience. One fine day he meets a M.B.A. pass out guy who is also unemployed. later they plan something illegal.
Director: Krishna Gopal

Cast:
Ajay Arya as
Shree Radhe Khanduja as

Details
Name:The Indian Post Graduate (2018) Hindi 720p HDRip x264 AAC 950MB
Description:
The Indian Post Graduate (2018) Hindi 720p HDRip x264 AAC 950MB

18b15af12d8b2d68ccb37bc437eb32f8.jpg
Format                                   : Matroska
Format version                           : Version 4 / Version 2
File size                                : 964 MiB
Duration                                 : 1 h 45 min
Overall bit rate                         : 1 277 kb/s
Encoded date                             : UTC 2018-07-25 09:11:46
Writing application                      : mkvmerge v23.0.0 ('The Bride Said No') 64-bit
Writing library                          : libebml v1.3.6 + libmatroska v1.4.9

Video
ID                                       : 1
Format                                   : AVC
Format/Info                              : Advanced Video Codec
Format profile                           : Main@L3.1
Format settings                          : CABAC / 2 Ref Frames
Format settings, CABAC                   : Yes
Format settings, RefFrames               : 2 frames
Format settings, GOP                     : M=1, N=25
Codec ID                                 : V_MPEG4/ISO/AVC
Duration                                 : 1 h 45 min
Bit rate                                 : 1 186 kb/s
Width                                    : 1 280 pixels
Height                                   : 544 pixels
Display aspect ratio                     : 2.35:1
Frame rate mode                          : Constant
Frame rate                               : 24.000 FPS
Color space                              : YUV
Chroma subsampling                       : 4:2:0
Bit depth                                : 8 bits
Scan type                                : Progressive
Bits/(Pixel*Frame)                       : 0.071
Stream size                              : 895 MiB (93%)
Default                                  : Yes
Forced                                   : No

Audio
ID                                       : 2
Format                                   : AAC
Format/Info                              : Advanced Audio Codec
Format profile                           : LC
Codec ID                                 : A_AAC-2
Duration                                 : 1 h 45 min
Bit rate                                 : 88.3 kb/s
Channel(s)                               : 2 channels
Channel positions                        : Front: L R
Sampling rate                            : 48.0 kHz
Frame rate                               : 46.875 FPS (1024 SPF)
Compression mode                         : Lossy
Stream size                              : 66.6 MiB (7%)
Language                                 : Hindi
Default                                  : Yes
Forced                                   : No

 
 
 
 
 
 
 
 
 
 
Category:Movies > Bollywood
Lang:Hindi
Total Size:963.71 MB



|| Download This Movie Via Single Resumable Links Size: 964 MB ||

Direct-1 Google Drive | Direct-2 | Direct-3 |

Watch Online Click Here

Post a Comment

2 Comments