Crazy World Only 4 You

Sorry For The Inconvenience. If You are facing link dead or no google drive file access then inform us via comment

Latest Updates

Monday, 9 July 2018

This Is 40 (2012) BluRay 720p Dual Audio [Eng-Hindi] XviD DD 5.1 [Team SSX]


Poster


iMDB
Imdb Picture Title: This Is 40
Year: 2012
Runtime: 134 minutes
Votes: 113206
Rating: 6.2/10
Language: English
Country: USA
All Genres: Comedy, Romance
Plot Outline: Pete (Paul Rudd) and Debbie (Leslie Mann) are turning 40. But instead of celebrating, they're mired in a mid-life crisis with unruly kids, debt and unhappiness mounding. Pete's record label is failing and Debbie is unable to come to terms with her aging body. As Pete's 40th birthday party arrives, Pete and Debbie are going to have to rely on family, friends, employees, fitness trainers, aging rockers and ultimately each other to come to terms with life at age 40. Written by napierslogs
Tagline: The Sort-of Sequel to 'Knocked Up'
Director: Judd Apatow
Writing By: Judd Apatow,Judd Apatow,
Produced By: Judd Apatow,Lisa Goldberg,Barry Mendel,Paula Pell,Clayton Townsend,
Music: Jon Brion
Cast:
Paul Rudd as Pete
Leslie Mann as Debbie
Maude Apatow as Sadie
Iris Apatow as Charlotte
Jason Segel as Jason
Annie Mumolo as Barb
Robert Smigel as Barry
Megan Fox as Desi
Charlyne Yi as Jodi
Hugh Fink as Male Boutique Customer
Trailers:
U.S. Version #3
U.S. Version -- #2
No. 1




Details
Name:This Is 40 (2012) BluRay 720p Dual Audio [Eng-Hindi] XviD DD 5.1 [Team SSX]
Description:
This Is 40 (2012) BluRay 720p Dual Audio [Eng-Hindi] XviD DD 5.1 [Team SSX]

 

General


Format : Matroska
Format version : Version 4 / Version 2
File size : 2.19 GiB
Duration : 2 h 13 min
Overall bit rate : 2 347 kb/s



Video
ID : 1
Format : MPEG-4 Visual
Format profile : Advanced Simple@L5
Format settings : BVOP2
Format settings, BVOP : 2
Format settings, QPel : No
Format settings, GMC : No warppoints
Format settings, Matrix : Default (MPEG)
Codec ID : V_MS/VFW/FOURCC / XVID
Codec ID/Hint : XviD
Duration : 2 h 13 min
Bit rate : 1 641 kb/s
Width : 720 pixels
Height : 304 pixels
Display aspect ratio : 2.35:1
Frame rate mode : Constant
Frame rate : 23.976 (24000/1001) FPS
Color space : YUV
Chroma subsampling : 4:2:0
Bit depth : 8 bits
Scan type : Progressive
Compression mode : Lossy
Bits/(Pixel*Frame) : 0.313
Stream size : 1.53 GiB (70%)
Writing library : XviD 73
Language : English
Default : Yes
Forced : No

Audio #1
ID : 2
Format : AC-3
Format/Info : Audio Coding 3
Codec ID : A_AC3
Duration : 2 h 13 min
Bit rate mode : Constant
Bit rate : 320 kb/s
Channel(s) : 6 channels
Channel positions : Front: L C R, Side: L R, LFE
Sampling rate : 48.0 kHz
Frame rate : 31.250 FPS (1536 SPF)
Bit depth : 16 bits
Compression mode : Lossy
Stream size : 306 MiB (14%)
Service kind : Complete Main
Default : No
Forced : No

Audio #2
ID : 3
Format : AC-3
Format/Info : Audio Coding 3
Codec ID : A_AC3
Duration : 2 h 13 min
Bit rate mode : Constant
Bit rate : 384 kb/s
Channel(s) : 6 channels
Channel positions : Front: L C R, Side: L R, LFE
Sampling rate : 48.0 kHz
Frame rate : 31.250 FPS (1536 SPF)
Bit depth : 16 bits
Compression mode : Lossy
Delay relative to video : 1 ms
Stream size : 367 MiB (16%)
Language : Hindi
Service kind : Complete Main
Default : Yes
Forced : No
 
000f47c20a31c11e4113633b12bee845.th.png 6fefcfd906fa510d7b77af0d9131fb07.th.png 1a67de08cc21f87ad64bc59db24ec272.th.png a791e5bce450af8ae78b436fb8495b34.th.png 775e281481f42241a26673464b8c926f.th.png 8575fc4473eb4159f9732d0461a501a1.th.png
Category:Movies > Hollywood Dub
Lang:Hindi
Total Size:2.19 GB



|| Download This Movie Via Single Resumable Links Size: 2.19 GB ||

Direct-1 Google Drive | Direct-2 | Direct-3 |

Watch Online Click Here

No comments:

Post a Comment