Vendetta (2015) BluRay 720p Dual Audio [Hindi + Eng] x264 Esub -= Exclusive By Maher =-


Poster
2998435979d097054df763f4fa3b3f40.jpg


iMDB
Imdb Picture Title: Vendetta
Year: 2015
Runtime: 90 minutes
Votes: 2240
Rating: 4.8/10
Language: English
Country: USA
All Genres: Action, Drama
Plot Outline: A detective pushed beyond his limits will stop at nothing for vengeance. When his wife is killed by a criminal that he put away, Mason, a hard-nosed detective, deliberately gets arrested in order to get revenge. While inside, Mason discovers a new criminal enterprise that those behind it would kill to protect. Written by Lionsgate
Tagline: Get Ready for Hell in a Cell
Director: Jen Soska
Sylvia Soska
Writing By: Justin Shady,
Produced By: Richard Lowell,Michael J. Luisi,Donald Munro,
Music: The Newton Brothers
Cast:
Dean Cain as Mason Danvers
Paul Wight as Victor Abbott
Michael Eklund as Warden Snyder
Benjamin Hollingsworth as Joel Gainer
Adrian Holmes as Drexel
Matthew MacCaull as Ben
Kyra Zagorsky as Jocelyn
Aleks Paunovic as Griffin Abbott
Jonathan Walker as Lester
Dee Jay Jackson as Will
Trailers:
Vendetta
Vendetta
Official Trailer



Details
Name:Vendetta (2015) BluRay 720p Dual Audio [Hindi + Eng] x264 Esub -= Exclusive By Maher =-
Description:
-= Vendetta 2015 x264 720p Dual Audio [Hindi + Eng] BluRay Esubs =-

-= Exclusive By Maher =-

2998435979d097054df763f4fa3b3f40.jpg

Format : Matroska
Format version : Version 4 / Version 2
File size : 820 MiB
Duration : 1 h 30 min
Overall bit rate : 1 272 kb/s
Encoded date : UTC 2018-06-26 11:59:46
Writing application : mkvmerge v9.7.1 ('Pandemonium') 64bit
Writing library : libebml v1.3.4 + libmatroska v1.4.5

Video
ID : 1
Format : AVC
Format/Info : Advanced Video Codec
Format profile : High@L4.1
Format settings : CABAC / 4 Ref Frames
Format settings, CABAC : Yes
Format settings, RefFrames : 4 frames
Codec ID : V_MPEG4/ISO/AVC
Duration : 1 h 30 min
Bit rate : 986 kb/s
Width : 1 280 pixels
Height : 720 pixels
Display aspect ratio : 16:9
Frame rate mode : Constant
Frame rate : 23.976 (24000/1001) FPS
Original frame rate : 23.976 (23976/1000) FPS
Color space : YUV
Chroma subsampling : 4:2:0
Bit depth : 8 bits
Scan type : Progressive
Bits/(Pixel*Frame) : 0.045
Stream size : 636 MiB (78%)
Writing library : x264 core 123 r2189 35cf912
Default : Yes
Forced : No
Color range : Limited
Color primaries : BT.709
Matrix coefficients : BT.709

Audio #1
ID : 2
Format : AAC
Format/Info : Advanced Audio Codec
Format profile : LC
Codec ID : A_AAC-2
Duration : 1 h 30 min
Bit rate : 93.8 kb/s
Channel(s) : 2 channels
Channel positions : Front: L R
Sampling rate : 48.0 kHz
Frame rate : 46.875 FPS (1024 SPF)
Compression mode : Lossy
Stream size : 60.5 MiB (7%)
Language : English
Default : No
Forced : No

Audio #2
ID : 3
Format : AAC
Format/Info : Advanced Audio Codec
Format profile : LC
Codec ID : A_AAC-2
Duration : 1 h 30 min
Bit rate : 192 kb/s
Channel(s) : 2 channels
Channel positions : Front: L R
Sampling rate : 48.0 kHz
Frame rate : 46.875 FPS (1024 SPF)
Compression mode : Lossy
Stream size : 122 MiB (15%)
Title : BY-AHMED-MAHER
Language : Hindi
Default : Yes
Forced : Yes

Text
ID : 4
Format : UTF-8
Codec ID : S_TEXT/UTF8
Codec ID/Info : UTF-8 Plain Text
Duration : 1 h 22 min
Bit rate : 33 b/s
Count of elements : 640
Stream size : 19.9 KiB (0%)
Default : Yes
Forced : No






Category:Movies > Hollywood Dub
Lang:Hindi
Total Size:838.76 MB



|| Download This Movie Via Single Resumable Links Size: 820 MB ||

Direct-1 Google Drive | Direct-2 | Direct-3 |

Watch Online Click Here

Post a Comment

0 Comments