Crazy World Only 4 You

Sorry For The Inconvenience. If You are facing link dead or no google drive file access then inform us via comment

Latest Updates

Wednesday, 11 July 2018

Zakhmi (2018) Hindi Complete Web Series S01 1080p WEB-HD x264 AAC 2.0 Team Jio Exclusive


Poster



Details
Name:Zakhmi 2018 [Hindi] S01 EP 1-11 WEB Original 1080p WEBDL AVC AAC 2.0 Team Jio Exclusive
Description:
Zakhmi (2018) Hindi Complete Web Series S01 1080p WEB-HD x264 AAC 2.0 Team Jio Exclusive

 

Format                                   : MPEG-4
Format profile                           : Base Media
Codec ID                                 : isom (isom/iso2/avc1/mp41)
File size                                : 3.74 GiB
Duration                                 : 44 min 33 s
Overall bit rate                         : 12.0 Mb/s
Writing application                      : Lavf58.17.100

Video
ID                                       : 1
Format                                   : AVC
Format/Info                              : Advanced Video Codec
Format profile                           : High@L4
Format settings                          : CABAC / 4 Ref Frames
Format settings, CABAC                   : Yes
Format settings, ReFrames                : 4 frames
Codec ID                                 : avc1
Codec ID/Info                            : Advanced Video Coding
Duration                                 : 44 min 33 s
Bit rate                                 : 12.0 Mb/s
Width                                    : 1 920 pixels
Height                                   : 816 pixels
Display aspect ratio                     : 2.35:1
Frame rate mode                          : Constant
Frame rate                               : 25.000 FPS
Color space                              : YUV
Chroma subsampling                       : 4:2:0
Bit depth                                : 8 bits
Scan type                                : Progressive
Bits/(Pixel*Frame)                       : 0.306
Stream size                              : 3.68 GiB (98%)
Writing library                          : x264 core 138

Audio
ID                                       : 2
Format                                   : AAC
Format/Info                              : Advanced Audio Codec
Format profile                           : LC
Codec ID                                 : mp4a-40-2
Duration                                 : 44 min 33 s
Bit rate mode                            : Constant
Bit rate                                 : 192 kb/s
Channel(s)                               : 2 channels
Channel positions                        : Front: L R
Sampling rate                            : 48.0 kHz
Frame rate                               : 46.875 FPS (1024 SPF)
Compression mode                         : Lossy
Stream size                              : 61.2 MiB (2%)
Default                                  : Yes
Alternate group                          : 1


Category:TV > WEB-HD
Lang:Hindi
Total Size:20.69 GB



|| Download This Tv Show Via Single Resumable Links Size: 1.04 GB ||

Direct-1 Google Drive | Direct-2 | Direct-3 |

Watch Online Click Here

No comments:

Post a Comment