Ant-Man and the Wasp (2018) 720p HDTC HQ M.Line Auds [Tamil + Hindi + Eng] - x264 - 1GB


Poster


iMDB
Imdb Picture Title: Ant-Man and the Wasp
Year: 2018
Runtime: 118 minutes
Votes: 7296
Rating: 7.8/10
Language: English
Country: USA
All Genres: Action, Adventure, Sci-Fi
Plot Outline: In the aftermath of 'Captain America: Civil War,' Scott Lang grapples with the consequences of his choices as both a Super Hero and a father. As he struggles to re-balance his home life with his responsibilities as Ant-Man, he's confronted by Hope van Dyne and Dr. Hank Pym with an urgent new mission. Scott must once again put on the suit and learn to fight alongside The Wasp as the team works together to uncover secrets from their past. Written by Walt Disney Studios
Tagline: Real heroes. Not actual size.
Director: Peyton Reed
Writing By: Chris McKenna,Erik Sommers,Paul Rudd,Andrew Barrer,Gabriel Ferrari,
Produced By: Victoria Alonso,Mitchell Bell,Stephen Broussard,Louis D'Esposito,Kevin Feige,Stan Lee,Charles Newirth,Laura Stoltz,Lars P. Winther,Kevin R. Wright,
Music: Christophe Beck
Cast:
Paul Rudd as Scott Lang / Ant-Man
Evangeline Lilly as Hope Van Dyne / Wasp
Michael Peña as Luis
Walton Goggins as Sonny Burch
Bobby Cannavale as Paxton
Judy Greer as Maggie
T.I. as Dave
David Dastmalchian as Kurt
Hannah John-Kamen as Ava / Ghost
Abby Ryder Fortson as Cassie
Trailers:
"Fun" TV Spot
Official Trailer
Teaser Trailer



Details
Name:Ant-Man and the Wasp (2018) 720p HDTC - HQ M.Line Auds [Tamil + Hindi + Eng] - x264 - 1GB
Description:
Ant-Man and the Wasp 2018 720p HDTC - HQ M.Line Auds [Tamil + Hindi + Eng] - x264 - 1GB

 

Format                                   : Matroska
Format version                           : Version 4 / Version 2
File size                                : 1.04 GiB
Duration                                 : 1 h 47 min
Overall bit rate                         : 1 387 kb/s

Video
ID                                       : 1
Format                                   : AVC
Format/Info                              : Advanced Video Codec
Format profile                           : High@L5.1
Format settings                          : CABAC / 4 Ref Frames
Format settings, CABAC                   : Yes
Format settings, ReFrames                : 4 frames
Codec ID                                 : V_MPEG4/ISO/AVC
Duration                                 : 1 h 47 min
Bit rate                                 : 1 129 kb/s
Width                                    : 1 280 pixels
Height                                   : 560 pixels
Display aspect ratio                     : 2.25:1
Frame rate mode                          : Constant
Frame rate                               : 23.976 (24000/1001) FPS
Color space                              : YUV
Chroma subsampling                       : 4:2:0
Bit depth                                : 8 bits
Scan type                                : Progressive
Bits/(Pixel*Frame)                       : 0.066
Stream size                              : 867 MiB (81%)
Writing library                          : x264 core 148 r2744 b97ae06
Default                                  : Yes
Forced                                   : No

Audio #1
ID                                       : 2
Format                                   : MPEG Audio
Format version                           : Version 2
Format profile                           : Layer 3
Format settings                          : Joint stereo / Intensity Stereo + MS Stereo
Codec ID                                 : A_MPEG/L3
Codec ID/Hint                            : MP3
Duration                                 : 1 h 47 min
Bit rate mode                            : Constant
Bit rate                                 : 80.0 kb/s
Channel(s)                               : 2 channels
Sampling rate                            : 22.05 kHz
Frame rate                               : 38.281 FPS (576 SPF)
Compression mode                         : Lossy
Stream size                              : 61.4 MiB (6%)
Default                                  : No
Forced                                   : No

Audio #2
ID                                       : 3
Format                                   : MPEG Audio
Format version                           : Version 2
Format profile                           : Layer 3
Format settings                          : Joint stereo / Intensity Stereo + MS Stereo
Codec ID                                 : A_MPEG/L3
Codec ID/Hint                            : MP3
Duration                                 : 1 h 47 min
Bit rate mode                            : Constant
Bit rate                                 : 80.0 kb/s
Channel(s)                               : 2 channels
Sampling rate                            : 22.05 kHz
Frame rate                               : 38.281 FPS (576 SPF)
Compression mode                         : Lossy
Stream size                              : 61.4 MiB (6%)
Language                                 : Hindi
Default                                  : No
Forced                                   : No

Audio #3
ID                                       : 4
Format                                   : AAC
Format/Info                              : Advanced Audio Codec
Format profile                           : LC
Codec ID                                 : A_AAC-2
Duration                                 : 1 h 47 min
Bit rate                                 : 96.0 kb/s
Channel(s)                               : 2 channels
Channel positions                        : Front: L R
Sampling rate                            : 48.0 kHz
Frame rate                               : 46.875 FPS (1024 SPF)
Compression mode                         : Lossy
Stream size                              : 73.7 MiB (7%)
Language                                 : English
Default                                  : Yes
Forced                                   : No

           
Category:Movies > Hollywood Dub
Lang:Hindi
Total Size:1.04 GB



|| Download This Movie Via Single Resumable Links Size: 1.04 GB ||

Direct-1 Google Drive | Direct-2 | Direct-3 |

Watch Online Click Here

Post a Comment

0 Comments