Avengers Infinity War (2018) BluRay 720p x265 [Dual Audio] [Hindi DD 5.1 - Eng] AAC Esub -=!Katyayan!=-


Poster


iMDB
Imdb Picture Title: Avengers: Infinity War
Year: 2018
Language: English
Country: USA
All Genres: Action, Adventure, Fantasy, Sci-Fi
Plot Outline: The plot is unknown at this time.
Director: Anthony Russo
Joe Russo
Writing By: Jack Kirby,Christopher Markus,Stephen McFeely,Jim Starlin,
Produced By: Victoria Alonso,Mitchell Bell,Ari Costa,Louis D'Esposito,Jon Favreau,Kevin Feige,Michael Grillo,James Gunn,Stan Lee,
Music: Alan Silvestri
Plot:
The plot is unknown at this time.

Cast:
Tom Holland as Peter Parker / Spider-Man
Karen Gillan as Nebula
Scarlett Johansson as Natasha Romanoff / Black Widow
Brie Larson as Carol Danvers / Captain Marvel
Robert Downey Jr. as Tony Stark / Iron Man
Elizabeth Olsen as Wanda Maximoff / Scarlet Witch
Chris Pratt as Peter Quill / Star-Lord
Chris Evans as Steve Rogers / Captain America
Cobie Smulders as Maria Hill
Benedict Cumberbatch as Dr. Stephen Strange
Trailers:
First-Look Featurette



Details
Name:Avengers Infinity War (2018) BluRay 720p x265 [Dual Audio] [Hindi DD 5.1 - Eng] AAC Esub -=!Kat...
Description:

Avengers Infinity War 2018 BluRay 720p x265 [Dual Audio] [Hindi DD 5.1 - Eng] AAC Esub -=!Katyayan!=-


 


-=====================Source Credit=====================-
:::::::::::::::::::> Video ---- XRG
:::::::::::::::::::> Audio ---- Org Untouched DD 5.1 640Kbps Hindi By ~Hammer



Format                                   : Matroska
Format version                           : Version 4 / Version 2
File size                                : 999 MiB
Duration                                 : 2 h 29 min
Overall bit rate                         : 936 kb/s
Movie name                               : Avengers Infinity War 2018 BluRay 720p x265 [Dual Audio] [Hindi DD 5.1 - Eng] AAC Esub -=!Katyayan!=-
Encoded date                             : UTC 2018-08-17 18:59:13
Writing application                      : mkvmerge v24.0.0 ('Beyond The Pale') 64-bit
Writing library                          : libebml v1.3.6 + libmatroska v1.4.9
Cover                                    : Yes
Attachments                              : Avengers Infinity War 2018 Cover

Video
ID                                       : 1
Format                                   : HEVC
Format/Info                              : High Efficiency Video Coding
Format profile                           : Main 10@L4.1@Main
Codec ID                                 : V_MPEGH/ISO/HEVC
Duration                                 : 2 h 29 min
Bit rate                                 : 735 kb/s
Width                                    : 1 280 pixels
Height                                   : 536 pixels
Display aspect ratio                     : 2.40:1
Frame rate mode                          : Constant
Frame rate                               : 23.976 (24000/1001) FPS
Color space                              : YUV
Chroma subsampling                       : 4:2:0
Bit depth                                : 10 bits
Bits/(Pixel*Frame)                       : 0.045
Stream size                              : 785 MiB (79%)
Title                                    : Avengers Infinity War 2018 BluRay 720p x265 [Dual Audio] [Hindi DD 5.1 - Eng] AAC Esub -=!Katyayan!=-
Writing library                          : x265 2.5+14-2718cb5dd67f:[Windows][GCC 7.1.0][64 bit] 10bit
Language                                 : English
Default                                  : Yes
Forced                                   : No
Color range                              : Limited
Transfer characteristics                 : BT.709

Audio #1
ID                                       : 2
Format                                   : AAC
Format/Info                              : Advanced Audio Codec
Format profile                           : LC
Codec ID                                 : A_AAC-2
Duration                                 : 2 h 29 min
Bit rate                                 : 160 kb/s
Channel(s)                               : 6 channels
Channel positions                        : Front: L C R, Side: L R, LFE
Sampling rate                            : 48.0 kHz
Frame rate                               : 46.875 FPS (1024 SPF)
Compression mode                         : Lossy
Stream size                              : 171 MiB (17%)
Title                                    : -=!Katyayan!=-
Language                                 : Hindi
Default                                  : Yes
Forced                                   : Yes

Audio #2
ID                                       : 3
Format                                   : AAC
Format/Info                              : Advanced Audio Codec
Format profile                           : HE-AAC / LC
Format settings                          : Explicit
Codec ID                                 : A_AAC-2
Duration                                 : 2 h 29 min
Bit rate                                 : 32.0 kb/s
Channel(s)                               : 2 channels
Channel positions                        : Front: L R
Sampling rate                            : 48.0 kHz / 24.0 kHz
Frame rate                               : 23.438 FPS (1024 SPF)
Compression mode                         : Lossy
Delay relative to video                  : 31 ms
Stream size                              : 34.2 MiB (3%)
Title                                    : -=!Katyayan!=-
Language                                 : English
Default                                  : No
Forced                                   : No

Text
ID                                       : 4
Format                                   : VobSub
Muxing mode                              : zlib
Codec ID                                 : S_VOBSUB
Codec ID/Info                            : Picture based subtitle format used on DVDs
Duration                                 : 2 h 28 min
Bit rate                                 : 8 992 b/s
Count of elements                        : 2067
Stream size                              : 9.55 MiB (1%)
Title                                    : -=!Katyayan!=-
Language                                 : English
Default                                  : Yes
Forced                                   : No

Menu
00:00:00.000                             : en:Chapter 1
00:11:28.730                             : en:Chapter 2
00:18:13.884                             : en:Chapter 3
00:27:23.809                             : en:Chapter 4
00:35:48.813                             : en:Chapter 5
00:42:23.541                             : en:Chapter 6
00:54:12.875                             : en:Chapter 7
00:59:36.740                             : en:Chapter 8
01:05:07.153                             : en:Chapter 9
01:10:53.666                             : en:Chapter 10
01:17:06.956                             : en:Chapter 11
01:24:14.758                             : en:Chapter 12
01:31:08.004                             : en:Chapter 13
01:42:00.406                             : en:Chapter 14
01:45:57.810                             : en:Chapter 15
01:53:04.069                             : en:Chapter 16
01:58:52.917                             : en:Chapter 17
02:03:58.181                             : en:Chapter 18
02:11:13.282                             : en:Chapter 19
02:17:31.285                             : en:Chapter 20



 

Category:Movies > Hollywood Dub
Lang:Hindi
Total Size:999.73 MB



|| Download This Movie Via Single Resumable Links Size: 999 MB ||

Direct-1 Google Drive | Direct-2 | Direct-3 |

Watch Online Click Here

Post a Comment

0 Comments