Baarish Aur Chowmein (2018) Hindi 1080p WEB-DL AVC AAC DD2.0 Esub TeamTelly Exclusive


Poster
Baarish-Aur-Chawmein-800x800-3.jpg



Details
Name:Baarish Aur Chowmein (2018) Hindi 1080p WEB-DL AVC AAC DD2.0 Esub TeamTelly Exclusive
Description:
Baarish Aur Chowmein (2018) Hindi 1080p WEB-DL AVC AAC DD2.0 Esub TeamTelly Exclusive

Baarish-Aur-Chawmein-800x800-38148fcef729a24fd.jpg


Format                                   : MPEG-4
Format profile                           : Base Media
Codec ID                                 : isom (isom/iso2/avc1/mp41)
File size                                : 1.06 GiB
Duration                                 : 48 min 34 s
Overall bit rate                         : 3 114 kb/s
Writing application                      : Lavf56.40.101

Video
ID                                       : 1
Format                                   : AVC
Format/Info                              : Advanced Video Codec
Format profile                           : High@L4
Format settings                          : CABAC / 4 Ref Frames
Format settings, CABAC                   : Yes
Format settings, ReFrames                : 4 frames
Codec ID                                 : avc1
Codec ID/Info                            : Advanced Video Coding
Duration                                 : 48 min 34 s
Bit rate                                 : 3 000 kb/s
Width                                    : 1 920 pixels
Height                                   : 1 080 pixels
Display aspect ratio                     : 16:9
Frame rate mode                          : Constant
Frame rate                               : 24.000 FPS
Color space                              : YUV
Chroma subsampling                       : 4:2:0
Bit depth                                : 8 bits
Scan type                                : Progressive
Bits/(Pixel*Frame)                       : 0.060
Stream size                              : 1.03 GiB (98%)
Writing library                          : x264 core 152 r2854 e9a5903

Audio
ID                                       : 2
Format                                   : AAC
Format/Info                              : Advanced Audio Codec
Format profile                           : LC
Codec ID                                 : mp4a-40-2
Duration                                 : 48 min 34 s
Bit rate mode                            : Constant
Bit rate                                 : 64.2 kb/s
Channel(s)                               : 2 channels
Channel positions                        : Front: L R
Sampling rate                            : 48.0 kHz
Frame rate                               : 46.875 FPS (1024 SPF)
Compression mode                         : Lossy
Stream size                              : 22.3 MiB (2%)
Default                                  : Yes
Alternate group                          : 1

 
  GNUrH.th.png GNP3h.th.png GNZvr.th.png GNv0j.th.png GN7Wo.th.png GNzuV.th.png GN2DK.th.png GNA5s.th.png
Category:Movies > Bollywood
Lang:Hindi
Total Size:1.06 GB






|| Download This Movie Via Single Resumable Links Size: 1.06 GB ||

Direct-1 Google Drive | Direct-2 | Direct-3 |

Watch Online Click Here

Post a Comment

0 Comments