Brij Mohan Amar Rahe (2018) Hindi 1080p NF WEB-DL x264 AC3 DD 5.1 Esub Team Jio Exclusive


Poster
3c4d4201bc53d6aed86cf4987c570ed6.jpg


iMDB
Imdb Picture Original Title: Brij Mohan Amar Rahe
Title: Long Live Brij Mohan
Year: 2018
Language: Hindi
Country: India
All Genres: Comedy, Crime, Drama
Plot Outline: Brij Mohan (36), a hosiery shop owner in a busy Delhi market, desperately wants to change his life. He is fed up of his ball-crusher wife and mounting debts. In order to escape his wretched life, he changes his appearance and adopts a new identity as Amar Sethi, but ends up committing a botched up murder. He runs off with his young girlfriend, hopeful of making a new beginning. Instead, as luck would have it, he finds himself trapped in a web of his own Karma.
Tagline: Karma is a B*tch
Director: Nikhil Bhat
Writing By: Nikhil Bhat,Nikhil Bhat,Nikhil Bhat,Kuldeep Ruhil,Gaurav Sharma,Gaurav Sharma,
Produced By: Hemant Kumar Dixit,Raghav Gupta,Siddharth Anand Kumar,Shoaib Lokhandwala,Vikram Mehra,Kalindar Mulani,Gaurav Sharma,Sahil Sharma,
Music: Andrew T. Mackay
Cast:
Arjun Mathur as Brij Mohan
Nidhi Singh as Sweety
Sheetal Thakur as Simi
Manav Vij as Beniwal
Vijayant Kohli as Suri
Sunny Hinduja as Raghu
Yogendra Tikku as Sinha
Rajendra Bhatia as Doctor
Lokesh Mittal as Lawer
Goswami Lalit as Constable



Details
Name:Brij Mohan Amar Rahe (2018) Hindi 480p NF WEB-DL x264 AAC DD 5.1 Esub Team Jio Exclusive
Description:
Brij Mohan Amar Rahe (2018) Hindi 480p NF WEB-DL x264 AAC DD 5.1 Esub Team Jio Exclusive

f2925405e237d7bb895362c0a4d35867.jpg



Format                                   : Matroska
Format version                           : Version 4 / Version 2
File size                                : 3.57 GiB
Duration                                 : 1 h 40 min
Overall bit rate                         : 5 113 kb/s
Encoded date                             : UTC 2018-08-03 08:44:09
Writing application                      : mkvmerge v25.0.0 ('Prog Noir') 64-bit
Writing library                          : libebml v1.3.6 + libmatroska v1.4.9

Video
ID                                       : 1
Format                                   : AVC
Format/Info                              : Advanced Video Codec
Format profile                           : Main@L4
Format settings                          : CABAC / 3 Ref Frames
Format settings, CABAC                   : Yes
Format settings, ReFrames                : 3 frames
Codec ID                                 : V_MPEG4/ISO/AVC
Duration                                 : 1 h 40 min
Bit rate                                 : 4 151 kb/s
Width                                    : 1 920 pixels
Height                                   : 1 080 pixels
Display aspect ratio                     : 16:9
Frame rate mode                          : Constant
Frame rate                               : 24.000 FPS
Color space                              : YUV
Chroma subsampling                       : 4:2:0
Bit depth                                : 8 bits
Scan type                                : Progressive
Bits/(Pixel*Frame)                       : 0.083
Stream size                              : 2.90 GiB (81%)
Default                                  : Yes
Forced                                   : No

Audio #1
ID                                       : 2
Format                                   : E-AC-3
Format/Info                              : Enhanced Audio Coding 3
Codec ID                                 : A_EAC3
Duration                                 : 1 h 40 min
Bit rate mode                            : Constant
Bit rate                                 : 192 kb/s
Channel(s)                               : 6 channels
Channel positions                        : Front: L C R, Side: L R, LFE
Sampling rate                            : 48.0 kHz
Frame rate                               : 187.500 FPS (256 SPF)
Compression mode                         : Lossy
Delay relative to video                  : -41 ms
Stream size                              : 137 MiB (4%)
Service kind                             : Complete Main
Default                                  : Yes
Forced                                   : No

Audio #2
ID                                       : 3
Format                                   : AC-3
Format/Info                              : Audio Coding 3
Codec ID                                 : A_AC3
Duration                                 : 1 h 40 min
Bit rate mode                            : Constant
Bit rate                                 : 384 kb/s
Channel(s)                               : 6 channels
Channel positions                        : Front: L C R, Side: L R, LFE
Sampling rate                            : 48.0 kHz
Frame rate                               : 31.250 FPS (1536 SPF)
Bit depth                                : 16 bits
Compression mode                         : Lossy
Delay relative to video                  : -41 ms
Stream size                              : 275 MiB (8%)
Language                                 : Hindi
Service kind                             : Complete Main
Default                                  : No
Forced                                   : No

Audio #3
ID                                       : 4
Format                                   : AC-3
Format/Info                              : Audio Coding 3
Codec ID                                 : A_AC3
Duration                                 : 1 h 40 min
Bit rate mode                            : Constant
Bit rate                                 : 384 kb/s
Channel(s)                               : 6 channels
Channel positions                        : Front: L C R, Side: L R, LFE
Sampling rate                            : 48.0 kHz
Frame rate                               : 31.250 FPS (1536 SPF)
Bit depth                                : 16 bits
Compression mode                         : Lossy
Delay relative to video                  : -41 ms
Stream size                              : 275 MiB (8%)
Title                                    : Audio Description
Language                                 : Hindi
Service kind                             : Complete Main
Default                                  : No
Forced                                   : No

Text #1
ID                                       : 5
Format                                   : UTF-8
Codec ID                                 : S_TEXT/UTF8
Codec ID/Info                            : UTF-8 Plain Text
Duration                                 : 1 h 35 min
Bit rate                                 : 57 b/s
Count of elements                        : 996
Stream size                              : 40.1 KiB (0%)
Language                                 : English
Default                                  : Yes
Forced                                   : No

Text #2
ID                                       : 6
Format                                   : UTF-8
Codec ID                                 : S_TEXT/UTF8
Codec ID/Info                            : UTF-8 Plain Text
Duration                                 : 1 h 39 min
Bit rate                                 : 55 b/s
Count of elements                        : 1056
Stream size                              : 40.3 KiB (0%)
Language                                 : Portuguese
Default                                  : No
Forced                                   : No



30e6fd65055b3b49a8f5752857ee3056.th.png 5b81e1a5a43b160ec81028728d2d0c27.th.png db4f5b61a494f10bfe29e4745a0dc3d5.th.png a878c263d836efec7304ac38a041b474.th.png 86cbc8c7b6ca8aef0fbf8c87f129aa83.th.png 40e22f624b6695fce2845775f2e9518b.th.png 925a6c8039c4a3bf35509c7ca0775c6d.th.png 5b2359b2d8a7e61444ab5f662fe5a0b5.th.png 1477af2197f33c2bf641c905f875d928.th.png 19c769a16ca8e3226717cdf66f1bb545.th.png
Category:Movies > WEB-HD
Lang:Hindi
Total Size:3.57 GB



|| Download This Movie Via Single Resumable Links Size: 3.57 GB ||

Direct-1 Google Drive | Direct-2 | Direct-3 |

Watch Online Click Here

Post a Comment

0 Comments