Dawn of the Dead (2004) BluRay 720p x264 Dual Audio [Hindi DD5.1 - English DD5.1] - Esub ~ Ranvijay


Poster


iMDB
Imdb Picture Title: Dawn of the Dead
Year: 2004
Runtime: 101 minutes
Votes: 208953
Rating: 7.3/10
Language: English
Country: USA, Canada, Japan, France
All Genres: Action, Horror, Thriller
Plot Outline: A nurse, a policeman, a young married couple, a salesman, and other survivors of a worldwide plague that is producing aggressive, flesh-eating zombies, take refuge in a mega Midwestern shopping mall.
Tagline: When there's no more room in hell, the dead will walk the earth.
Director: Zack Snyder
Writing By: George A. Romero,James Gunn,
Produced By: Marc Abraham,Armyan Bernstein,Thomas A. Bliss,Dennis E. Jones,Michael D. Messina,Eric Newman,Richard P. Rubinstein,
Music: Tyler Bates
Cast:
Sarah Polley as Ana
Ving Rhames as Kenneth
Jake Weber as Michael
Mekhi Phifer as Andre
Ty Burrell as Steve
Michael Kelly as CJ
Kevin Zegers as Terry
Michael Barry as Bart
Lindy Booth as Nicole
Jayne Eastwood as Norma



Details
Name:Dawn of the Dead (2004) BluRay 720p x264 Dual Audio [Hindi DD5.1 - English DD5.1] - Esub ~ Ranv...
Description:
Dawn of the Dead (2004) BluRay 720p x264 Dual Audio [Hindi DD5.1 - English DD5.1] - Esub ~ Ranvijay



Thanks To Hammer Hammer For Hindi Audio.

Format                                   : Matroska
Format version                           : Version 4 / Version 2
File size                                : 1.48 GiB
Duration                                 : 1 h 40 min
Overall bit rate                         : 2 113 kb/s
Movie name                               : Dawn of the Dead (2004) 720p BluRay x264 Dual Audio [Hindi DD5.1 - English DD5.1] - Esub ~ Ranvijay

Video
Duration                                 : 1 h 40 min
Bit rate                                 : 1 500 kb/s
Width                                    : 1 280 pixels
Height                                   : 544 pixels
Display aspect ratio                     : 2.35:1
Frame rate mode                          : Constant
Frame rate                               : 23.976 (23976/1000) FPS
Color space                              : YUV
Chroma subsampling                       : 4:2:0
Bit depth                                : 8 bits
Scan type                                : Progressive
Bits/(Pixel*Frame)                       : 0.090
Stream size                              : 1.05 GiB (71%)
Title                                    : ~Ranvijay~
Default                                  : Yes
Forced                                   : No

Audio #1
ID                                       : 2
Format                                   : AC-3
Format/Info                              : Audio Coding 3
Codec ID                                 : A_AC3
Duration                                 : 1 h 40 min
Bit rate mode                            : Constant
Bit rate                                 : 384 kb/s
Channel(s)                               : 6 channels
Channel positions                        : Front: L C R, Side: L R, LFE
Sampling rate                            : 48.0 kHz
Frame rate                               : 31.250 FPS (1536 SPF)
Bit depth                                : 16 bits
Compression mode                         : Lossy
Stream size                              : 275 MiB (18%)
Title                                    : ~Ranvijay~
Language                                 : Hindi
Service kind                             : Complete Main
Default                                  : Yes
Forced                                   : No

Audio #2
ID                                       : 3
Format                                   : AAC
Format/Info                              : Advanced Audio Codec
Format profile                           : LC
Codec ID                                 : A_AAC-2
Duration                                 : 1 h 40 min
Bit rate                                 : 224 kb/s
Channel(s)                               : 6 channels
Channel positions                        : Front: L C R, Side: L R, LFE
Sampling rate                            : 48.0 kHz
Frame rate                               : 46.875 FPS (1024 SPF)
Compression mode                         : Lossy
Stream size                              : 160 MiB (11%)
Title                                    : ~Ranvijay~
Language                                 : English
Default                                  : No
Forced                                   : No

Text
ID                                       : 4
Format                                   : VobSub
Muxing mode                              : zlib
Codec ID                                 : S_VOBSUB
Codec ID/Info                            : Picture based subtitle format used on DVDs
Duration                                 : 1 h 37 min
Bit rate                                 : 3 850 b/s
Count of elements                        : 1293
Stream size                              : 2.69 MiB (0%)
Title                                    : ~Ranvijay~
Language                                 : English
Default                                  : Yes
Forced                                   : No

             
Category:Movies > Hollywood Dub
Lang:Hindi
Total Size:1.49 GB





|| Download This Movie Via Single Resumable Links Size: 1.48 GB ||

Direct-1 Google Drive | Direct-2 | Direct-3 |

Watch Online Click Here

Post a Comment

0 Comments