Grade (2017) Hindi 1080p AMZN WEB-DL H264 AAC DD 2.0 Team Crazy Exclusive


Poster


iMDB
Imdb Picture Title: GRADE
Year: 2017
Runtime: 64 minutes
Votes: 14
Rating: 6.4/10
Language: Hindi
Country: India
All Genres: Drama
Plot Outline: Grade is first ever film made in India to address Films classification Subject. Grade is a story of girl Sapna and her struggle to get work and act in films. Film gives message- Films should be classified on age, not on Grade. Arts/Entertainment should not be divided into Grade. Written by yash thakur
Director: Anup Samaddar
Mrinalini Chatterjee
Swati Ghosh
Writing By: Yash Thakur,
Produced By: Yash Thakur,
Music: Navdeep Dwivedi
Cast:
Mrinalini Chatterjee as Sapna
Malay Ghosh as Father
Swati Ghosh as Pooja
Chaiti Paul as Mother



Details
Name:Grade (2017) Hindi 1080p AMZN WEB-DL H264 AAC DD 2.0 Team Crazy Exclusive
Description:
Grade (2017) Hindi 1080p AMZN WEB-DL H264 AAC DD 2.0 Team Crazy Exclusive



Source :- Team Jio

Format                                   : MPEG-4
Format profile                           : Base Media
Codec ID                                 : isom (isom/iso2/avc1/mp41)
File size                                : 1.11 GiB
Duration                                 : 1 h 3 min
Overall bit rate                         : 2 487 kb/s
Writing application                      : Lavf58.12.100

Video
ID                                       : 1
Format                                   : AVC
Format/Info                              : Advanced Video Codec
Format profile                           : High@L4
Format settings                          : CABAC / 4 Ref Frames
Format settings, CABAC                   : Yes
Format settings, ReFrames                : 4 frames
Codec ID                                 : avc1
Codec ID/Info                            : Advanced Video Coding
Duration                                 : 1 h 3 min
Bit rate                                 : 2 394 kb/s
Width                                    : 1 920 pixels
Height                                   : 1 080 pixels
Display aspect ratio                     : 16:9
Frame rate mode                          : Constant
Frame rate                               : 25.000 FPS
Color space                              : YUV
Chroma subsampling                       : 4:2:0
Bit depth                                : 8 bits
Scan type                                : Progressive
Bits/(Pixel*Frame)                       : 0.046
Stream size                              : 1.05 GiB (95%)
Writing library                          : x264 core 148 r2643 5c65704

Audio
ID                                       : 2
Format                                   : AAC
Format/Info                              : Advanced Audio Codec
Format profile                           : LC
Codec ID                                 : mp4a-40-2
Duration                                 : 1 h 3 min
Duration_LastFrame                       : -10 ms
Bit rate mode                            : Constant
Bit rate                                 : 128 kb/s
Channel(s)                               : 2 channels
Channel(s)_Original                      : 1 channel
Channel positions                        : Front: C
Sampling rate                            : 44.1 kHz
Frame rate                               : 43.066 FPS (1024 SPF)
Compression mode                         : Lossy
Stream size                              : 58.4 MiB (5%)
Title                                    : Track1
Default                                  : Yes
Alternate group                          : 1

 8e41ea04abccb1641126dd231ae47ced.th.png 61c2edd8a95fb0bd5637e38097d560e8.th.png 314be8a8313cf2c1bdd9995b5efc84a9.th.png cf3bedb0a804ebd9adb12ab7cd851f87.th.png 43a60ad4051f90aeb3ed96464cfdf345.th.png 81498154f382d8ba7575f0cac5d86692.th.png f63a1f8ae9175cdddb310be6109d47d8.th.png 6ae6a54b538d97ee8ef8b108a9fc389b.th.png 6bc48b64daf01d7a1645ccbd8c656da5.th.png 5fda07ca717cb52ecbb673a6dd5e743d.th.png 0e0bebc385ae1a921ebd00fdd849d2e6.th.png
Category:Movies > Bollywood
Lang:Hindi
Total Size:1.11 GB



|| Download This Movie Via Single Resumable Links Size: 1.11 GB ||

Direct-1 Google Drive | Direct-2 | Direct-3 |

Watch Online Click Here

Post a Comment

0 Comments