I Am Number Four (2011) BluRay 720p x264 Dual Audio [Hindi DD2.0 - English DD2.0] - Esub ~ Ranvijay


Poster


iMDB
Title: I Am Number Four
Year: 2011
Runtime: 111 minutes
Language: English, French
All Genres: Action, Adventure, Sci-Fi, Thriller
Director: D.J. Caruso
Writing By: Alfred Gough,Miles Millar,Marti Noxon,Jobie Hughes,James Frey,
Produced By: Michael Bay,Chris Bender,Emily Berger,Matthew Cohan,Lori J. Nelson,Langley Perer,J.C. Spink,David Valdes,
Music: Trevor Rabin
Cast:
Alex Pettyfer as John
Timothy Olyphant as Henri
Teresa Palmer as Number 6
Dianna Agron as Sarah
Callan McAuliffe as Sam
Kevin Durand as Mogadorian Commander
Jake Abel as Mark
Jeff Hochendoner as Sheriff James
Patrick Sebes as Kevin
Greg Townley as Number 3
Trailers:
I Am Number Four: Extended Trailer
I Am Number Four: Trailer #2
I Am Number Four: International Trailer
I Am Number Four -- Teaser Trailer
I Am Number Four: Book Trailer



Details
Name:I Am Number Four (2011) BluRay 720p x264 Dual Audio [Hindi DD2.0 - English DD2.0] - Esub ~ Ranv...
Description:
I Am Number Four (2011) BluRay 720p x264 Dual Audio [Hindi DD2.0 - English DD2.0] - Esub ~ Ranvijay




Thanks To Hammer For Hindi Audio  

Format                                   : Matroska
Format version                           : Version 4 / Version 2
File size                                : 1.05 GiB
Duration                                 : 1 h 49 min
Overall bit rate                         : 1 372 kb/s
Movie name                               : I Am Number Four (2011) 720p BluRay x264 Dual Audio [Hindi DD2.0 - English DD2.0] - Esub ~ Ranvijay

Video
ID                                       : 1
Format                                   : AVC
Format/Info                              : Advanced Video Codec
Duration                                 : 1 h 49 min
Bit rate                                 : 1 060 kb/s
Width                                    : 1 280 pixels
Height                                   : 694 pixels
Display aspect ratio                     : 1.85:1
Frame rate mode                          : Constant
Frame rate                               : 23.976 (24000/1001) FPS
Stream size                              : 831 MiB (77%)
Title                                    : ~Ranvijay~
Default                                  : Yes
Forced                                   : No

Audio #1
ID                                       : 2
Format                                   : AC-3
Format/Info                              : Audio Coding 3
Codec ID                                 : A_AC3
Duration                                 : 1 h 49 min
Bit rate mode                            : Constant
Bit rate                                 : 224 kb/s
Channel(s)                               : 2 channels
Channel positions                        : Front: L R
Sampling rate                            : 48.0 kHz
Frame rate                               : 31.250 FPS (1536 SPF)
Bit depth                                : 16 bits
Compression mode                         : Lossy
Delay relative to video                  : 950 ms
Stream size                              : 176 MiB (16%)
Title                                    : ~Ranvijay~
Language                                 : Hindi
Service kind                             : Complete Main
Default                                  : Yes
Forced                                   : Yes

Audio #2
ID                                       : 3
Format                                   : AAC
Format/Info                              : Advanced Audio Codec
Format profile                           : LC
Codec ID                                 : A_AAC-2
Duration                                 : 1 h 49 min
Bit rate                                 : 86.3 kb/s
Channel(s)                               : 2 channels
Channel positions                        : Front: L R
Sampling rate                            : 48.0 kHz
Frame rate                               : 46.875 FPS (1024 SPF)
Compression mode                         : Lossy
Delay relative to video                  : 9 ms
Stream size                              : 67.7 MiB (6%)
Title                                    : ~Ranvijay~
Language                                 : English
Default                                  : No
Forced                                   : No

Text
ID                                       : 4
Format                                   : UTF-8
Codec ID                                 : S_TEXT/UTF8
Codec ID/Info                            : UTF-8 Plain Text
Duration                                 : 1 h 41 min
Bit rate                                 : 49 b/s
Count of elements                        : 1200
Stream size                              : 36.9 KiB (0%)
Title                                    : ~Ranvijay~
Language                                 : English
Default                                  : Yes
Forced                                   : No

Menu
00:00:00.000                             : en:00:00:00.000
00:04:09.249                             : en:00:04:09.249
00:11:33.192                             : en:00:11:33.192
00:18:00.454                             : en:00:18:00.454
00:25:41.373                             : en:00:25:41.373
00:30:58.106                             : en:00:30:58.106
00:39:29.534                             : en:00:39:29.534
00:45:30.311                             : en:00:45:30.311
00:54:51.663                             : en:00:54:51.663
01:03:43.403                             : en:01:03:43.403
01:14:23.209                             : en:01:14:23.209
01:21:59.790                             : en:01:21:59.790
01:27:39.337                             : en:01:27:39.337
01:32:27.625                             : en:01:32:27.625
01:37:03.568                             : en:01:37:03.568
01:41:56.152                             : en:01:41:56.152


                             
Category:Movies > Hollywood Dub
Lang:Hindi
Total Size:1.08 GB



|| Download This Movie Via Single Resumable Links Size: 1.05 GB ||

Direct-1 Google Drive | Direct-2 | Direct-3 |

Watch Online Click Here

Post a Comment

0 Comments