Crazy World Only 4 You

Sorry For The Inconvenience. If You are facing link dead or no google drive file access then inform us via comment

Latest Updates

Sunday, 12 August 2018

Isle of Dogs (2018) BluRay 720p x264 Dual Audio [Hindi DD5.1 - English DD2.0] - Esub ~ Ranvijay [Exclusive]


Poster
860d4f7a54fca2cf60f5b5b01920c65c.jpg


iMDB
Imdb Picture Original Title: Isle of Dogs
Title: L'île aux chiens
Year: 2018
Runtime: 101 minutes
Votes: 27127
Rating: 8.2/10
Language: English, Japanese
Country: Germany, USA
All Genres: Animation, Adventure, Comedy, Drama, Fantasy
Plot Outline: An outbreak of dog flu has spread through the city of Megasaki, Japan, and Mayor Kobayashi has demanded all dogs to be sent to Trash Island. On the island, a young boy named Atari sets out to find his lost dog, Spots, with the help of five other dogs... with many obstacles along the way. Written by Mike202
Director: Wes Anderson
Writing By: Wes Anderson,Roman Coppola,Jason Schwartzman,Kunichi Nomura,Wes Anderson,
Produced By: Ben Adler,Wes Anderson,Eli Bush,Molly Cooper,Jeremy Dawson,Christoph Fisser,Henning Molfenter,John Peet,Octavia Peissel,Simon Quinn,Steven Rales,Scott Rudin,Charlie Woebcken,
Music: Alexandre Desplat
Cast:
Bryan Cranston as Chief
Koyu Rankin as Atari
Edward Norton as Rex
Bob Balaban as King
Bill Murray as Boss
Jeff Goldblum as Duke
Kunichi Nomura as Mayor Kobayashi
Akira Takayama as Major-Domo
Greta Gerwig as Tracy Walker
Frances McDormand as Interpreter Nelson
Trailers:
Now Playing
Official Trailer


Details
Name:Isle of Dogs (2018) 720p HDRip x264 AAC 900 MB [MOVCR]
Description:
Isle of Dogs (2018) 720p BluRay x264 Dual Audio [Hindi DD5.1 - English DD2.0] - Esub ~ Ranvijay [Exclusive]

s-l1000.jpg

Format                                   : Matroska
Format version                           : Version 4 / Version 2
File size                                : 1.10 GiB
Duration                                 : 1 h 41 min
Overall bit rate                         : 1 554 kb/s
Movie name                               : Isle of Dogs (2018) 720p BluRay x264 Dual Audio [Hindi DD5.1 - English DD2.0] - Esub ~ Ranvijay

Video
ID                                       : 1
Format                                   : AVC
Format/Info                              : Advanced Video Codec
Duration                                 : 1 h 41 min
Bit rate                                 : 1 021 kb/s
Width                                    : 1 280 pixels
Height                                   : 534 pixels
Display aspect ratio                     : 2.40:1
Frame rate mode                          : Constant
Frame rate                               : 23.976 (24000/1001) FPS
Color space                              : YUV
Chroma subsampling                       : 4:2:0
Bit depth                                : 8 bits
Scan type                                : Progressive
Bits/(Pixel*Frame)                       : 0.062
Stream size                              : 739 MiB (66%)
Title                                    : ~Ranvijay~

Audio #1
ID                                       : 2
Format                                   : AC-3
Format/Info                              : Audio Coding 3
Codec ID                                 : A_AC3
Duration                                 : 1 h 41 min
Bit rate mode                            : Constant
Bit rate                                 : 448 kb/s
Channel(s)                               : 6 channels
Channel positions                        : Front: L C R, Side: L R, LFE
Sampling rate                            : 48.0 kHz
Frame rate                               : 31.250 FPS (1536 SPF)
Bit depth                                : 16 bits
Compression mode                         : Lossy
Stream size                              : 324 MiB (29%)
Title                                    : ~Ranvijay~
Language                                 : Hindi
Service kind                             : Complete Main
Default                                  : Yes
Forced                                   : Yes

Audio #2
ID                                       : 3
Format                                   : AAC
Format/Info                              : Advanced Audio Codec
Format profile                           : LC
Codec ID                                 : A_AAC-2
Duration                                 : 1 h 41 min
Bit rate                                 : 83.0 kb/s
Channel(s)                               : 2 channels
Channel positions                        : Front: L R
Sampling rate                            : 48.0 kHz
Frame rate                               : 46.875 FPS (1024 SPF)
Compression mode                         : Lossy
Delay relative to video                  : 9 ms
Stream size                              : 60.1 MiB (5%)
Title                                    : ~Ranvijay~
Language                                 : English
Default                                  : No
Forced                                   : No

Menu
00:00:00.000                             : en:00:00:00.000
00:03:36.049                             : en:00:03:36.049
00:07:53.181                             : en:00:07:53.181
00:13:41.195                             : en:00:13:41.195
00:16:39.373                             : en:00:16:39.373
00:20:45.035                             : en:00:20:45.035
00:26:04.312                             : en:00:26:04.312
00:29:27.265                             : en:00:29:27.265
00:35:58.573                             : en:00:35:58.573
00:40:36.475                             : en:00:40:36.475
00:44:46.433                             : en:00:44:46.433
00:48:15.100                             : en:00:48:15.100
00:52:07.499                             : en:00:52:07.499
00:56:06.780                             : en:00:56:06.780
00:59:07.085                             : en:00:59:07.085
01:03:17.710                             : en:01:03:17.710
01:08:45.079                             : en:01:08:45.079
01:14:03.230                             : en:01:14:03.230
01:16:34.965                             : en:01:16:34.965
01:20:46.925                             : en:01:20:46.925
01:23:36.219                             : en:01:23:36.219
01:30:09.737                             : en:01:30:09.737
01:33:02.493                             : en:01:33:02.493
01:35:41.235                             : en:01:35:41.235





Category:Movies > Hollywood Dub
Lang:Hindi
Total Size:1.10 GB



|| Download This Movie Via Single Resumable Links Size: 1.10 GB ||

Direct-1 Google Drive | Direct-2 | Direct-3 |

Watch Online Click Here

No comments:

Post a Comment