Lal Bahadur Shastri's Death (2018) Hindi 1080p WEB-DL x264 AAC ~Team Crazy Exclusive~


Lal Bahadur Shastri's Death (2018) Hindi 1080p WEB-DL x264 AAC ~Team Crazy Exclusive~


LBS.jpg

 

Source :- Team Jio

Format                                   : MPEG-4
Format profile                           : Base Media
Codec ID                                 : isom (isom/iso2/avc1/mp41)
File size                                : 229 MiB
Duration                                 : 15 min 3 s
Overall bit rate                         : 2 131 kb/s
Writing application                      : Lavf58.12.100

Video
ID                                       : 1
Format                                   : AVC
Format/Info                              : Advanced Video Codec
Format profile                           : High@L4
Format settings                          : CABAC / 4 Ref Frames
Format settings, CABAC                   : Yes
Format settings, ReFrames                : 4 frames
Codec ID                                 : avc1
Codec ID/Info                            : Advanced Video Coding
Duration                                 : 15 min 3 s
Bit rate                                 : 2 137 kb/s
Width                                    : 1 920 pixels
Height                                   : 1 080 pixels
Display aspect ratio                     : 16:9
Frame rate mode                          : Constant
Frame rate                               : 25.000 FPS
Color space                              : YUV
Chroma subsampling                       : 4:2:0
Bit depth                                : 8 bits
Scan type                                : Progressive
Bits/(Pixel*Frame)                       : 0.041
Stream size                              : 224 MiB (97%)
Writing library                          : x264 core 148 r2643 5c65704

Audio
ID                                       : 2
Format                                   : AAC
Format/Info                              : Advanced Audio Codec
Format profile                           : LC
Codec ID                                 : mp4a-40-2
Duration                                 : 15 min 3 s
Duration_LastFrame                       : -13 ms
Bit rate mode                            : Constant
Bit rate                                 : 48.0 kb/s
Channel(s)                               : 2 channels
Channel(s)_Original                      : 1 channel
Channel positions                        : Front: C
Sampling rate                            : 44.1 kHz
Frame rate                               : 43.066 FPS (1024 SPF)
Compression mode                         : Lossy
Stream size                              : 5.17 MiB (2%)
Default                                  : Yes
Alternate group                          : 1


qSSVH.th.png qS3aj.th.png qSRoo.th.png qSs1V.th.png qS5AK.th.png qSFes.th.png qSHpc.th.png qSJvz.th.png qSad3.th.png qSrCM.th.png

|| Download This Tv Show Via Single Resumable Links Size: 229 MB ||

Direct-1 Google Drive | Direct-2 | Direct-3 |

Watch Online Click Here

Post a Comment

0 Comments