Lechmi (2017) Malayalam 1080p NF WEB-DL H264 AC3 DD 5.1 Team Jio Exclusive


Poster


iMDB
Imdb Picture Title: Lechmi
Year: 2017
Runtime: 150 minutes
Votes: 7
Rating: 7.3/10
Language: Malayalam
Country: India
All Genres: Comedy, Crime, Horror, Thriller
Plot Outline: The main theme of the movie revolves around four bachelors. The story follows an incident that leads to unforeseen and dramatic changes in their lives.
Tagline: Some tales are better untold
Director: B.N. Shajeer Sha
Writing By: Sajeer,B.N. Shajeer Sha,
Music: Shabroz
Cast:
Chriz Deepu as Ikku / Ikbal
Parvathy Ratheesh as
Biju Sopanam as

Details
Name:Lechmi (2017) Malayalam 1080p NF WEB-DL H264 AC3 DD 5.1 Team Jio Exclusive
Description:
Lechmi (2017) Malayalam 1080p NF WEB-DL H264 AC3 DD 5.1 Team Jio Exclusive

8ac888724e751010366a72ca7521aed6.jpg



Format                                   : MPEG-4
Format profile                           : Base Media
Codec ID                                 : isom (isom/iso2/avc1/mp41)
File size                                : 4.72 GiB
Duration                                 : 2 h 27 min
Overall bit rate                         : 4 581 kb/s
Writing application                      : Lavf58.12.100

Video
ID                                       : 1
Format                                   : AVC
Format/Info                              : Advanced Video Codec
Format profile                           : Main@L4
Format settings                          : CABAC / 3 Ref Frames
Format settings, CABAC                   : Yes
Format settings, ReFrames                : 3 frames
Codec ID                                 : avc1
Codec ID/Info                            : Advanced Video Coding
Duration                                 : 2 h 27 min
Bit rate                                 : 4 189 kb/s
Width                                    : 1 920 pixels
Height                                   : 1 080 pixels
Display aspect ratio                     : 16:9
Frame rate mode                          : Constant
Frame rate                               : 24.000 FPS
Color space                              : YUV
Chroma subsampling                       : 4:2:0
Bit depth                                : 8 bits
Scan type                                : Progressive
Bits/(Pixel*Frame)                       : 0.084
Stream size                              : 4.31 GiB (91%)

Audio
ID                                       : 2
Format                                   : AC-3
Format/Info                              : Audio Coding 3
Codec ID                                 : ac-3
Duration                                 : 2 h 27 min
Bit rate mode                            : Constant
Bit rate                                 : 384 kb/s
Channel(s)                               : 6 channels
Channel positions                        : Front: L C R, Side: L R, LFE
Sampling rate                            : 48.0 kHz
Frame rate                               : 31.250 FPS (1536 SPF)
Bit depth                                : 16 bits
Compression mode                         : Lossy
Stream size                              : 405 MiB (8%)
Service kind                             : Complete Main
Default                                  : Yes
Alternate group                          : 1



a8e7168858195bcb60e53e4dce42bef1.jpg
Category:Movies > HDRips
Lang:Malayalam
Total Size:4.72 GB





|| Download This Movie Via Single Resumable Links Size: 6.76 GB ||

Direct-1 Google Drive | Direct-2 | Direct-3 |

Watch Online Click Here

Post a Comment

0 Comments