Padman (2018) Hindi 720p BDRip x264 AC3 DD - 5.1 - 1.4GB - ESubs


Poster
5fb6b6a86e96153dcf4283f5815de767.gif


iMDB
Imdb Picture Title: Padman
Year: 2018
Language: Hindi
Country: India
All Genres: Biography, Comedy, Drama
Plot Outline: Biography on Tamil Nadu activist Arunachalam Muruganantham, whose mission was to provide sanitary napkin's to poor women of rural areas. Who would use rag cloths or leaves during periods ...
Director: R. Balki
Writing By: R. Balki,Swanand Kirkire,
Produced By: Twinkle Khanna,Anil Naidu,Prashant Shah,
Music: Amit Trivedi
Cast:
Amitabh Bachchan as
Akshay Kumar as Lakshmikant Chauhan
Sonam Kapoor as Rhea
Radhika Apte as Gayatri
George Zouvelos as United States Diplomat
Sudhir Pandey as
Biju Menon as
Rob Tunstall as UN Ambassador
Vicky Kadian as Office Gaurd
Swini Khara as
Trailers:
Official 'Padman' Trailer



Details
Name:Padman (2018) Hindi 720p BDRip x264 AC3 DD - 5.1 - 1.4GB - ESubs
Description:
Padman (2018) Hindi 720p BDRip x264 AC3 DD - 5.1 - 1.4GB - ESubs

5fb6b6a86e96153dcf4283f5815de767.gif

Format                                   : Matroska
Format version                                   : Version 4 / Version 2
File size                                   : 1.45 GiB
Duration                                   : 2 h 16 min
Overall bit rate                                   : 1 526 kb/s

 Video
ID                                   : 1
Format                                   : AVC
Format/Info                                   : Advanced Video Codec
Format profile                                   : High@L4
Format settings                                   : CABAC / 5 Ref Frames
Format settings, CABAC                                   : Yes
Format settings, ReFrames                                   : 5 frames
Codec ID                                   : V_MPEG4/ISO/AVC
Duration                                   : 2 h 16 min
Bit rate                                   : 1 301 kb/s
Width                                   : 1 280 pixels
Height                                   : 548 pixels
Display aspect ratio                                   : 2.35:1
Frame rate mode                                   : Constant
Frame rate                                   : 24.000 FPS
Color space                                   : YUV
Chroma subsampling                                   : 4:2:0
Bit depth                                   : 8 bits
Scan type                                   : Progressive
Bits/(Pixel*Frame)                                   : 0.077
Stream size                                   : 1.23 GiB (85%)
Writing library                                   : x264 core 155 r2901 7d0ff22
Language                                   : Hindi
Default                                   : Yes
Forced                                   : No
Color range                                   : Limited
Color primaries                                   : BT.709
Transfer characteristics                                   : BT.709
Matrix coefficients                                   : BT.709

Audio
ID                                   : 2
Format                                   : AC-3
Format/Info                                   : Audio Coding 3
Codec ID                                   : A_AC3
Duration                                   : 2 h 16 min
Bit rate mode                                   : Constant
Bit rate                                   : 224 kb/s
Channel(s)                                   : 6 channels
Channel positions                                   : Front: L C R, Side: L R, LFE
Sampling rate                                   : 48.0 kHz
Frame rate                                   : 31.250 FPS (1536 SPF)
Bit depth                                   : 16 bits
Compression mode                                   : Lossy
Delay relative to video                                   : 48 ms
Stream size                                   : 219 MiB (15%)
Language                                   : Hindi
Service kind                                   : Complete Main
Default                                   : Yes
Forced                                   : No

Text
ID                                   : 3
Format                                   : UTF-8
Codec ID                                   : S_TEXT/UTF8
Codec ID/Info                                   : UTF-8 Plain Text
Duration                                   : 2 h 9 min
Bit rate                                   : 56 b/s
Count of elements                                   : 1968
Stream size                                   : 53.3 KiB (0%)
Language                                   : English
Default                                   : Yes
Forced                                   : Yes

01ji8.th.jpg 01XAt.th.jpg 01w59.th.jpg 01lpJ.th.jpg 01CvD.th.jpg 01W0g.th.jpg 01bC5.th.jpg 01Erm.th.jpg
Category:Movies > Bollywood
Lang:Hindi
Total Size:1.45 GB



|| Download This Movie Via Single Resumable Links Size: 1.45 GB ||

Direct-1 Google Drive | Direct-2 | Direct-3 |

Watch Online Click Here

Post a Comment

0 Comments