Poseidon (2006) BluRay 720p x264 Dual Audio [Hindi DD2.0 - English DD5.1] - Esub ~ Ranvijay


Poster


iMDB
Imdb Picture Title: Poseidon
Year: 2006
Runtime: 98 minutes
Votes: 89156
Rating: 5.6/10
Language: English, Spanish
Country: USA
All Genres: Action, Adventure, Drama, Thriller
Plot Outline: It is New Year's Eve, and over 2,000 passengers & crew are ringing in the New Year aboard the huge cruise ship 'Poseidon' when it capsizes on the open sea in the middle of the North Atlantic Ocean! A small group of survivors find themselves unlikely allies in a battle for their lives. Preferring to test the odds alone, career gambler Dylan Johns ignores captain's orders to wait below for possible rescue and sets out to find his own way to safety. What begins as a solo mission soon draws others, as Dylan is followed by a desperate father searching for his daughter and her fiancée--a young couple who hours before couldn't summon the courage to tell him they were engaged and now face much graver challenges. Along the way they are joined by a single mother and her wise-beyond-his-years son, an anxious stowaway and a despondent fellow passenger who boarded the ship not sure he wanted to live but now knows he doesn't want to die. Determined to fight their way to the surface, the group sets ... Written by Anthony Pereyra (hypersonic91yahoo.com)
Tagline: Mayday
Director: Wolfgang Petersen
Writing By: Mark Protosevich,Paul Gallico,
Produced By: Sheila Allen,Todd Arnow,Chris Briggs,Kevin Burns,Mike Fleiss,Akiva Goldsman,Duncan Henderson,Barbara Huber,Jon Jashni,Kimberly Miller,Lorne Orleans,Wolfgang Petersen,Ben Waisbren,
Music: Klaus Badelt
Cast:
Josh Lucas as Dylan Johns
Kurt Russell as Robert Ramsey
Jacinda Barrett as Maggie James
Richard Dreyfuss as Richard Nelson
Emmy Rossum as Jennifer Ramsey
Mía Maestro as Elena Morales
Mike Vogel as Christian
Kevin Dillon as Lucky Larry
Freddy Rodríguez as Marco Valentin
Jimmy Bennett as Conor James
Trailers:
Poseidon
Poseidon
Poseidon
Poseidon



Details
Name:Poseidon (2006) BluRay 720p x264 Dual Audio [Hindi DD2.0 - English DD5.1] - Esub ~ Ranvijay
Description:
Poseidon (2006) 720p BluRay x264 Dual Audio [Hindi DD2.0 - English DD5.1] - Esub ~ Ranvijay



Thanks To Hammer For Hindi Audio

 Format                                   : Matroska
Format version                           : Version 4 / Version 2
File size                                : 1.04 GiB
Duration                                 : 1 h 38 min
Overall bit rate                         : 1 510 kb/s

Video
ID                                       : 1
Format                                   : AVC
Format/Info                              : Advanced Video Codec
Duration                                 : 1 h 38 min
Bit rate                                 : 900 kb/s
Width                                    : 1 280 pixels
Height                                   : 530 pixels
Display aspect ratio                     : 2.40:1
Frame rate mode                          : Constant
Frame rate                               : 23.976 (24000/1001) FPS
Color space                              : YUV
Chroma subsampling                       : 4:2:0
Bit depth                                : 8 bits
Scan type                                : Progressive
Bits/(Pixel*Frame)                       : 0.055
Stream size                              : 632 MiB (60%)
Title                                    : ~Ranvijay~

Audio #1
ID                                       : 2
Format                                   : AC-3
Format/Info                              : Audio Coding 3
Codec ID                                 : A_AC3
Duration                                 : 1 h 38 min
Bit rate mode                            : Constant
Bit rate                                 : 224 kb/s
Channel(s)                               : 2 channels
Channel positions                        : Front: L R
Sampling rate                            : 48.0 kHz
Frame rate                               : 31.250 FPS (1536 SPF)
Bit depth                                : 16 bits
Compression mode                         : Lossy
Delay relative to video                  : 2 s 100 ms
Stream size                              : 157 MiB (15%)
Title                                    : ~Ranvijay~
Language                                 : Hindi
Service kind                             : Complete Main
Default                                  : Yes
Forced                                   : No

Audio #2
ID                                       : 3
Format                                   : AC-3
Format/Info                              : Audio Coding 3
Codec ID                                 : A_AC3
Duration                                 : 1 h 38 min
Bit rate mode                            : Constant
Bit rate                                 : 384 kb/s
Channel(s)                               : 6 channels
Channel positions                        : Front: L C R, Side: L R, LFE
Sampling rate                            : 48.0 kHz
Frame rate                               : 31.250 FPS (1536 SPF)
Bit depth                                : 16 bits
Compression mode                         : Lossy
Stream size                              : 270 MiB (25%)
Title                                    : ~Ranvijay~
Language                                 : English
Service kind                             : Complete Main
Default                                  : No
Forced                                   : No

Text
ID                                       : 4
Format                                   : UTF-8
Codec ID                                 : S_TEXT/UTF8
Codec ID/Info                            : UTF-8 Plain Text
Duration                                 : 1 h 24 min
Bit rate                                 : 41 b/s
Count of elements                        : 831
Stream size                              : 26.0 KiB (0%)
Title                                    : ~Ranvijay~
Language                                 : English
Default                                  : Yes
Forced                                   : No







Category:Movies > Hollywood Dub
Lang:Hindi
Total Size:1.05 GB



|| Download This Movie Via Single Resumable Links Size: 1.04 GB ||

Direct-1 Google Drive | Direct-2 | Direct-3 |

Watch Online Click Here

Post a Comment

0 Comments