Rangreza (2017) Urdu 1080p NF WEB-DL x264 AC3 DD 5.1 Esub Team Jio Exclusive


Poster
56860433e820123b9fda9a151b31a2e5.jpg


iMDB
Imdb Picture Title: Rangreza
Year: 2017
Runtime: 145 minutes
Votes: 100
Rating: 5.7/10
Language: Urdu
Country: Pakistan
All Genres: Music, Romance
Plot Outline: The story revolves around Reshmi, who belongs to a traditional Qawwal family and has been engaged since childhood to her cousin, Waseem. Conflict arises when Ali, a famous pop star falls in love with Reshmi.
Director: Amir Mohiuddin
Writing By: Akhtar Qayyum,
Produced By: Usman Malkani,Yasir Mohiuddin,
Music: Akhtar Qayyum
Cast:
Ghana Ali as Saba
Bilal Ashraf as Ali
Urwa Hocane as Reshmi
Saleem Mairaj as
Shahid Naqvi as Chotay khan
Gohar Rasheed as Waseem Wallay



Details
Name:Rangreza 2018 [Urdu] 1080p Netflix DL AVC Untouched DD 5.1 Audio ESUB Team Jio Exclusive
Description:
Rangreza (2017) Urdu 1080p NF WEB-DL x264 AC3 DD 5.1 Esub Team Jio Exclusive

627298f61643f5227ba6293131c76d2a.jpg

 

Format                                   : MPEG-4
Format profile                           : Base Media
Codec ID                                 : isom (isom/iso2/avc1/mp41)
File size                                : 4.95 GiB
Duration                                 : 2 h 6 min
Overall bit rate                         : 5 615 kb/s
Writing application                      : Lavf58.12.100

Video
ID                                       : 1
Format                                   : AVC
Format/Info                              : Advanced Video Codec
Format profile                           : Main@L4
Format settings                          : CABAC / 3 Ref Frames
Format settings, CABAC                   : Yes
Format settings, ReFrames                : 3 frames
Codec ID                                 : avc1
Codec ID/Info                            : Advanced Video Coding
Duration                                 : 2 h 6 min
Bit rate                                 : 5 222 kb/s
Width                                    : 1 920 pixels
Height                                   : 1 080 pixels
Display aspect ratio                     : 16:9
Frame rate mode                          : Constant
Frame rate                               : 24.000 FPS
Color space                              : YUV
Chroma subsampling                       : 4:2:0
Bit depth                                : 8 bits
Scan type                                : Progressive
Bits/(Pixel*Frame)                       : 0.105
Stream size                              : 4.61 GiB (93%)

Audio
ID                                       : 2
Format                                   : AC-3
Format/Info                              : Audio Coding 3
Codec ID                                 : ac-3
Duration                                 : 2 h 6 min
Bit rate mode                            : Constant
Bit rate                                 : 384 kb/s
Channel(s)                               : 6 channels
Channel positions                        : Front: L C R, Side: L R, LFE
Sampling rate                            : 48.0 kHz
Frame rate                               : 31.250 FPS (1536 SPF)
Bit depth                                : 16 bits
Compression mode                         : Lossy
Stream size                              : 347 MiB (7%)
Service kind                             : Complete Main
Default                                  : Yes
Alternate group                          : 1



0ydYd.th.png 0y0n9.th.png 0yTzE.th.png 0yGQt.th.png 0yYlJ.th.png 0yMT8.th.png 0yckg.th.png 0yeJD.th.png
Category:Movies > WEB-HD
Lang:Urdu
Total Size:4.95 GB



|| Download This Movie Via Single Resumable Links Size: 4.95 GB ||

Direct-1 Google Drive | Direct-2 | Direct-3 |

Watch Online Click Here

Post a Comment

0 Comments