Rangreza (2017) Urdu 720p NF WEB-DL x264 AAC DD 2.0 Esub Team Crazy Exclusive


Poster
56860433e820123b9fda9a151b31a2e5.jpg


iMDB
Imdb Picture Title: Rangreza
Year: 2017
Runtime: 145 minutes
Votes: 100
Rating: 5.7/10
Language: Urdu
Country: Pakistan
All Genres: Music, Romance
Plot Outline: The story revolves around Reshmi, who belongs to a traditional Qawwal family and has been engaged since childhood to her cousin, Waseem. Conflict arises when Ali, a famous pop star falls in love with Reshmi.
Director: Amir Mohiuddin
Writing By: Akhtar Qayyum,
Produced By: Usman Malkani,Yasir Mohiuddin,
Music: Akhtar Qayyum
Cast:
Ghana Ali as Saba
Bilal Ashraf as Ali
Urwa Hocane as Reshmi
Saleem Mairaj as
Shahid Naqvi as Chotay khan
Gohar Rasheed as Waseem Wallay



Details
Name:Rangreza (2017) Urdu 720p NF WEB-DL x264 AAC DD 2.0 Esub Team Crazy Exclusive
Description:
Rangreza (2017) Urdu 720p NF WEB-DL x264 AAC DD 2.0 Esub Team Crazy Exclusive

627298f61643f5227ba6293131c76d2a.jpg

 

Format                                   : MPEG-4
Format profile                           : Base Media
Codec ID                                 : isom (isom/iso2/avc1/mp41)
File size                                : 1.03 GiB
Duration                                 : 2 h 6 min
Overall bit rate                         : 1 169 kb/s
Writing application                      : Lavf58.12.100

Video
ID                                       : 1
Format                                   : AVC
Format/Info                              : Advanced Video Codec
Format profile                           : High@L3.1
Format settings                          : CABAC / 4 Ref Frames
Format settings, CABAC                   : Yes
Format settings, ReFrames                : 4 frames
Codec ID                                 : avc1
Codec ID/Info                            : Advanced Video Coding
Duration                                 : 2 h 6 min
Bit rate                                 : 1 124 kb/s
Width                                    : 1 274 pixels
Height                                   : 720 pixels
Display aspect ratio                     : 16:9
Frame rate mode                          : Constant
Frame rate                               : 25.000 FPS
Color space                              : YUV
Chroma subsampling                       : 4:2:0
Bit depth                                : 8 bits
Scan type                                : Progressive
Bits/(Pixel*Frame)                       : 0.049
Stream size                              : 1 000 MiB (95%)

Audio
ID                                       : 2
Format                                   : AAC
Format/Info                              : Advanced Audio Codec
Format profile                           : LC
Codec ID                                 : mp4a-40-2
Duration                                 : 2 h 6 min
Bit rate mode                            : Constant
Bit rate                                 : 55.8 kb/s
Channel(s)                               : 2 channels
Channel(s)_Original                      : 1 channel
Channel positions                        : Front: C
Sampling rate                            : 44.1 kHz
Frame rate                               : 43.066 FPS (1024 SPF)
Compression mode                         : Lossy
Stream size                              : 50.4 MiB (5%)
Default                                  : Yes
Alternate group                          : 1




33280bdf13abcae4b2d61e7ed56c3ec2.jpg
Category:Movies > WEB-HD
Lang:Urdu
Total Size:1.03 GB



|| Download This Movie Via Single Resumable Links Size: 1.03 GB ||

Direct-1 Google Drive | Direct-2 | Direct-3 |

Watch Online Click Here

Post a Comment

0 Comments