Siddhant (2015) Hindi 1080p WEB-DL AVC AAC DD 2.0 Team Jio Exclusive


Poster
cd6e5fe0bb6fab871c6f9e12767cdae7.jpg


iMDB

Title: Siddhant
Year: 2014
Runtime: 112 minutes
Votes: 8
Rating: 6.8/10
Language: Marathi
Country: India
All Genres: Drama
Plot Outline: If you cannot nurture honesty in your own home, you have no moral or ethical right to preach such values to society. Appa Thosar, a renowned mathematics teacher in the Konkan embodied this principle all his life. He is extremely fond of his grandson Vakratund who is a topper in Maths. Coincidentally, Appa comes across a nerve-shattering truth Vakratund has been successful through unfair means. Siddhant a sensitive story about moral courage and emotional turmoil.
Writing By: Shekhar Dhavalikar,Shekhar Dhavalikar,
Produced By: Vivek Kajaria,Nilesh Navalakha,
Cast:
Archit Deodhar as Vakratund Thosar
Vikram Gokhale as Appa Thosar
Kishore Kadam as
Ganesh Yadav as

 

Details
Name:Siddhant (2014) Hindi 1080p WEB-DL AVC AAC DD 2.0 Team Jio Exclusive
Description:
Siddhant (2014) Hindi 1080p WEB-DL AVC AAC DD 2.0 Team Jio Exclusive



6188fe787725352e1af4373edf081a08.jpg





Format                                   : MPEG-4
Format profile                           : Base Media
Codec ID                                 : isom (isom/iso2/avc1/mp41)
File size                                : 3.38 GiB
Duration                                 : 1 h 45 min
Overall bit rate mode                    : Constant
Overall bit rate                         : 4 566 kb/s
Writing application                      : Lavf58.17.101

Video
ID                                       : 1
Format                                   : AVC
Format/Info                              : Advanced Video Codec
Format profile                           : Main@L4
Format settings                          : CABAC / 1 Ref Frames
Format settings, CABAC                   : Yes
Format settings, ReFrames                : 1 frame
Format settings, GOP                     : M=1, N=100
Codec ID                                 : avc1
Codec ID/Info                            : Advanced Video Coding
Duration                                 : 1 h 45 min
Bit rate mode                            : Constant
Bit rate                                 : 4 500 kb/s
Width                                    : 1 920 pixels
Height                                   : 1 080 pixels
Display aspect ratio                     : 16:9
Frame rate mode                          : Constant
Frame rate                               : 25.000 FPS
Color space                              : YUV
Chroma subsampling                       : 4:2:0
Bit depth                                : 8 bits
Scan type                                : Progressive
Bits/(Pixel*Frame)                       : 0.087
Stream size                              : 3.33 GiB (99%)

Audio
ID                                       : 2
Format                                   : AAC
Format/Info                              : Advanced Audio Codec
Format profile                           : LC
Codec ID                                 : mp4a-40-2
Duration                                 : 1 h 45 min
Bit rate mode                            : Constant
Bit rate                                 : 61.4 kb/s
Channel(s)                               : 2 channels
Channel positions                        : Front: L R
Sampling rate                            : 48.0 kHz
Frame rate                               : 46.875 FPS (1024 SPF)
Compression mode                         : Lossy
Stream size                              : 46.5 MiB (1%)
Default                                  : Yes
Alternate group                          : 1





qv0fV.th.png qvqjK.th.png qvd9H.th.png qvGHs.th.png qviR3.th.png qvYOc.th.png qvemz.th.png
Category:Movies > WEB-HD
Lang:Hindi
Total Size:3.38 GB



|| Download This Movie Via Single Resumable Links Size: 3.38 GB ||

Direct-1 Google Drive | Direct-2 | Direct-3 |

Watch Online Click Here

Post a Comment

0 Comments