The Fog (2005) 720p WEB-HD x264 Dual Audio [Hindi DD2.0 - English DD2.0] - Esub ~ Ranvijay


Poster


iMDB
Title: The Fog
Year: 2005
Runtime: 100 minutes
Language: English
All Genres: Horror
Tagline: From The Makers Of "Halloween"
Director: Rupert Wainwright
Writing By: Cooper Layne,John Carpenter,Debra Hill,
Produced By: John Carpenter,Mark Cartier,Randi Chernov,Derek Dauchy,David Foster,Todd Garner,Grace Gilroy,Debra Hill,Dan Kolsrud,Shane Riches,
Music: Graeme Revell
Cast:
Tom Welling as Nick Castle
Maggie Grace as Elizabeth Williams
Selma Blair as Stevie Wayne
DeRay Davis as Spooner
Kenneth Welsh as Tom Malone
Adrian Hough as Father Malone
Sara Botsford as Kathy Williams
Cole Heppell as Andy Wayne
Mary Black as Aunt Connie
Jonathon Young as Dan The Weatherman
Trailers:
The Fog
The Fog
The Fog



Details
Name:The Fog (2005) 720p WEB-HD x264 Dual Audio [Hindi DD2.0 - English DD2.0] - Esub ~ Ranvijay
Description:
The Fog (2005) 720p WEB-HD x264 Dual Audio [Hindi DD2.0 - English DD2.0] - Esub ~ Ranvijay



Thanks To Hammer For Hindi Audio

Format                                   : Matroska
Format version                           : Version 4 / Version 2
File size                                : 1.05 GiB
Duration                                 : 1 h 39 min
Overall bit rate                         : 1 504 kb/s
Movie name                               : The Fog (2005) 720p WEB-HD x264 Dual Audio [Hindi DD2.0 - English DD2.0] - Esub ~ Ranvijay

Video
ID                                       : 1
Format                                   : AVC
Duration                                 : 1 h 39 min
Bit rate                                 : 1 029 kb/s
Width                                    : 1 280 pixels
Height                                   : 720 pixels
Display aspect ratio                     : 16:9
Frame rate mode                          : Constant
Frame rate                               : 23.976 (24000/1001) FPS
Stream size                              : 735 MiB (68%)
Title                                    : ~Ranvijay~
Default                                  : Yes
Forced                                   : No

Audio #1
ID                                       : 2
Format                                   : AC-3
Format/Info                              : Audio Coding 3
Codec ID                                 : A_AC3
Duration                                 : 1 h 39 min
Bit rate mode                            : Constant
Bit rate                                 : 384 kb/s
Channel(s)                               : 2 channels
Channel positions                        : Front: L R
Sampling rate                            : 48.0 kHz
Frame rate                               : 31.250 FPS (1536 SPF)
Bit depth                                : 16 bits
Compression mode                         : Lossy
Stream size                              : 274 MiB (26%)
Title                                    : ~Ranvijay~
Language                                 : Hindi
Service kind                             : Complete Main
Default                                  : Yes
Forced                                   : No

Audio #2
ID                                       : 3
Format                                   : AAC
Format/Info                              : Advanced Audio Codec
Format profile                           : LC
Codec ID                                 : A_AAC-2
Duration                                 : 1 h 39 min
Bit rate                                 : 88.6 kb/s
Channel(s)                               : 2 channels
Channel positions                        : Front: L R
Sampling rate                            : 48.0 kHz
Frame rate                               : 46.875 FPS (1024 SPF)
Compression mode                         : Lossy
Delay relative to video                  : 9 ms
Stream size                              : 63.3 MiB (6%)
Title                                    : ~Ranvijay~
Language                                 : English
Default                                  : No
Forced                                   : No

Text
ID                                       : 4
Format                                   : UTF-8
Codec ID                                 : S_TEXT/UTF8
Codec ID/Info                            : UTF-8 Plain Text
Duration                                 : 1 h 34 min
Bit rate                                 : 41 b/s
Count of elements                        : 1127
Stream size                              : 29.0 KiB (0%)
Title                                    : ~Ranvijay~
Language                                 : English
Default                                  : Yes
Forced                                   : No

 
 
 
Category:Movies > Hollywood Dub
Lang:Hindi
Total Size:1.05 GB




|| Download This Movie Via Single Resumable Links Size: 1.05 GB ||

Direct-1 Google Drive | Direct-2 | Direct-3 |

Watch Online Click Here

Post a Comment

0 Comments