The President Bodyguard (2018) Hindi 1080p WEB-DL AVC AAC DD 2.0 Team Telly Exclusive


Poster
e6b79493cac8730c48af0fb83926cf4f.jpg


iMDB

Title: The President's Bodyguard
Year: 2018
Runtime: 44 minutes
Language: English
Country: India
All Genres: Documentary
Director: Ryan Coney

Produced By: Ryan Coney,Andrew Kullas,
Music: Lisa Brady
Cast:



Details
Name:The President Bodyguard [Hindi] 2018 1080p Hotstar DL AVC DD 2.0 Team Telly Exclusive
Description:
The President Bodyguard (2018) Hindi 1080p WEB-DL AVC AAC DD 2.0 Team Telly Exclusive



49a2f932b7e892ccd4670830c8165008.jpg



Format                                   : MPEG-4
Format profile                           : Base Media
Codec ID                                 : isom (isom/iso2/avc1/mp41)
File size                                : 1.42 GiB
Duration                                 : 44 min 33 s
Overall bit rate mode                    : Variable
Overall bit rate                         : 4 566 kb/s
Writing application                      : Lavf56.40.101

Video
ID                                       : 1
Format                                   : AVC
Format/Info                              : Advanced Video Codec
Format profile                           : Main@L4
Format settings                          : CABAC / 1 Ref Frames
Format settings, CABAC                   : Yes
Format settings, ReFrames                : 1 frame
Format settings, GOP                     : M=1, N=100
Codec ID                                 : avc1
Codec ID/Info                            : Advanced Video Coding
Duration                                 : 44 min 33 s
Bit rate mode                            : Constant
Bit rate                                 : 4 500 kb/s
Width                                    : 1 920 pixels
Height                                   : 1 080 pixels
Display aspect ratio                     : 16:9
Frame rate mode                          : Constant
Frame rate                               : 25.000 FPS
Color space                              : YUV
Chroma subsampling                       : 4:2:0
Bit depth                                : 8 bits
Scan type                                : Progressive
Bits/(Pixel*Frame)                       : 0.087
Stream size                              : 1.40 GiB (99%)

Audio
ID                                       : 2
Format                                   : AAC
Format/Info                              : Advanced Audio Codec
Format profile                           : LC
Codec ID                                 : mp4a-40-2
Duration                                 : 44 min 33 s
Bit rate mode                            : Variable
Bit rate                                 : 61.4 kb/s
Maximum bit rate                         : 64.1 kb/s
Channel(s)                               : 2 channels
Channel positions                        : Front: L R
Sampling rate                            : 48.0 kHz
Frame rate                               : 46.875 FPS (1024 SPF)
Compression mode                         : Lossy
Stream size                              : 19.6 MiB (1%)
Default                                  : Yes
Alternate group                          : 1

 
qsqWh.th.png qsi5H.th.png qsGrr.th.png qsYuj.th.png qseDo.th.png qsLBV.th.png qsmcK.th.png
Category:TV > WEB-HD
Lang:Hindi
Total Size:1.42 GB



|| Download This Movie Via Single Resumable Links Size: 1.42 GB ||

Direct-1 Google Drive | Direct-2 | Direct-3 |

Watch Online Click Here

Post a Comment

2 Comments