Tikli and Laxmi Bomb (2017) Hindi 1080p NF Web-DL AVC AAC DD 2.0 Esub Team Jio Exclusive


Poster


iMDB
Imdb Picture Title: Tikli and Laxmi Bomb
Year: 2017
Votes: 76
Rating: 8.6/10
Language: Hindi
Country: India
All Genres: Drama
Plot Outline: Tired of men who promise protection but actually become predators themselves, two Mumbai based sex workers decide to kick men out of the business and start a cooperative that is run by women and for women, and thus run the sex trade themselves. How do they do things differently? How far are they allowed to reach and prosper before they become too serious a threat for patriarchy?
Director: Aditya Kripalani
Writing By: Aditya Kripalani,Aditya Kripalani,Aditya Kripalani,
Produced By: Aditya Kripalani,Sweta Chhabria Kripalani,Vijay Nair,
Music: Marcus Corbett Dhanashree Ganatra Aditya Kripalani
Cast:
Vibhawari Deshpande as Laxmi
Suchitra Pillai as Manda
Chitrangada Chakraborty as Tikli
Mayur More as A.T.
Upendra Limaye as Mhatre
Mia Maelzer as Kala
Divya Unny as Sharanya Nair
Saharsh Kumar Shukla as Mangatram Pichauri
Vikas Shukla as
Rakhi Mansha as Heera Moti
Trailers:
Tikli and Laxmi Bomb



Details
Name:Tikli and Laxmi Bomb (2017) Hindi 1080p NF Web-DL AVC AAC DD 2.0 Esub Team Jio Exclusive
Description:
Tikli and Laxmi Bomb (2017) Hindi 1080p NF Web-DL AVC AAC DD 2.0 Esub Team Jio Exclusive



 

Format                                   : MPEG-4
Format profile                           : Base Media
Codec ID                                 : isom (isom/iso2/avc1/mp41)
File size                                : 3.56 GiB
Duration                                 : 2 h 30 min
Overall bit rate                         : 3 376 kb/s
Writing application                      : Lavf58.12.100

Video
ID                                       : 1
Format                                   : AVC
Format/Info                              : Advanced Video Codec
Format profile                           : Main@L4
Format settings                          : CABAC / 3 Ref Frames
Format settings, CABAC                   : Yes
Format settings, ReFrames                : 3 frames
Codec ID                                 : avc1
Codec ID/Info                            : Advanced Video Coding
Duration                                 : 2 h 30 min
Bit rate                                 : 3 276 kb/s
Width                                    : 1 920 pixels
Height                                   : 1 080 pixels
Display aspect ratio                     : 16:9
Frame rate mode                          : Constant
Frame rate                               : 24.000 FPS
Color space                              : YUV
Chroma subsampling                       : 4:2:0
Bit depth                                : 8 bits
Scan type                                : Progressive
Bits/(Pixel*Frame)                       : 0.066
Stream size                              : 3.45 GiB (97%)

Audio
ID                                       : 2
Format                                   : AAC
Format/Info                              : Advanced Audio Codec
Format profile                           : HE-AAC / LC
Format settings                          : Explicit
Codec ID                                 : mp4a-40-2
Duration                                 : 2 h 30 min
Bit rate mode                            : Constant
Bit rate                                 : 96.0 kb/s
Channel(s)                               : 2 channels
Channel positions                        : Front: L R
Sampling rate                            : 48.0 kHz / 24.0 kHz
Frame rate                               : 23.438 FPS (1024 SPF)
Compression mode                         : Lossy
Stream size                              : 102 MiB (3%)
Default                                  : Yes
Alternate group                          : 1



0rfGU.th.png 0r8Ue.th.png 0ro4R.th.png 0rGHh.th.png 0rhbn.th.png 0rd9q.th.png 0r0fQ.th.png 0rqXW.th.png
Category:Movies > WEB-HD
Lang:Hindi
Total Size:3.56 GB



|| Download This Movie Via Single Resumable Links Size: 3.56 GB ||

Direct-1 Google Drive | Direct-2 | Direct-3 |

Watch Online Click Here

Post a Comment

0 Comments