Crazy World Only 4 You

Sorry For The Inconvenience. If You are facing link dead or no google drive file access then inform us via comment

Latest Updates

Thursday, 2 August 2018

Tikli and Laxmi Bomb (2017) Hindi 720p NF Web-DL AVC AAC DD 2.0 Esub Team Crazy Exclusive


Poster


iMDB
Imdb Picture Title: Tikli and Laxmi Bomb
Year: 2017
Votes: 76
Rating: 8.6/10
Language: Hindi
Country: India
All Genres: Drama
Plot Outline: Tired of men who promise protection but actually become predators themselves, two Mumbai based sex workers decide to kick men out of the business and start a cooperative that is run by women and for women, and thus run the sex trade themselves. How do they do things differently? How far are they allowed to reach and prosper before they become too serious a threat for patriarchy?
Director: Aditya Kripalani
Writing By: Aditya Kripalani,Aditya Kripalani,Aditya Kripalani,
Produced By: Aditya Kripalani,Sweta Chhabria Kripalani,Vijay Nair,
Music: Marcus Corbett Dhanashree Ganatra Aditya Kripalani
Cast:
Vibhawari Deshpande as Laxmi
Suchitra Pillai as Manda
Chitrangada Chakraborty as Tikli
Mayur More as A.T.
Upendra Limaye as Mhatre
Mia Maelzer as Kala
Divya Unny as Sharanya Nair
Saharsh Kumar Shukla as Mangatram Pichauri
Vikas Shukla as
Rakhi Mansha as Heera Moti
Trailers:
Tikli and Laxmi Bomb



Details
Name:Tikli and Laxmi Bomb (2017) Hindi 1080p NF Web-DL AVC AAC DD 2.0 Esub Team Jio Exclusive
Description:
Tikli and Laxmi Bomb (2017) Hindi 1080p NF Web-DL AVC AAC DD 2.0 Esub Team Jio Exclusive



 

Format                                   : MPEG-4
Format profile                           : Base Media
Codec ID                                 : isom (isom/iso2/avc1/mp41)
File size                                : 1.17 GiB
Duration                                 : 2 h 30 min
Overall bit rate                         : 1 108 kb/s
Writing application                      : Lavf58.12.100

Video
ID                                       : 1
Format                                   : AVC
Format/Info                              : Advanced Video Codec
Format profile                           : High@L3.1
Format settings                          : CABAC / 4 Ref Frames
Format settings, CABAC                   : Yes
Format settings, ReFrames                : 4 frames
Codec ID                                 : avc1
Codec ID/Info                            : Advanced Video Coding
Duration                                 : 2 h 30 min
Bit rate                                 : 1 047 kb/s
Width                                    : 1 274 pixels
Height                                   : 720 pixels
Display aspect ratio                     : 16:9
Frame rate mode                          : Constant
Frame rate                               : 25.000 FPS
Color space                              : YUV
Chroma subsampling                       : 4:2:0
Bit depth                                : 8 bits
Scan type                                : Progressive
Bits/(Pixel*Frame)                       : 0.046
Stream size                              : 1.09 GiB (94%)

Audio
ID                                       : 2
Format                                   : AAC
Format/Info                              : Advanced Audio Codec
Format profile                           : LC
Codec ID                                 : mp4a-40-2
Duration                                 : 2 h 30 min
Duration_LastFrame                       : -5 ms
Bit rate mode                            : Constant
Bit rate                                 : 64.0 kb/s
Channel(s)                               : 2 channels
Channel(s)_Original                      : 1 channel
Channel positions                        : Front: C
Sampling rate                            : 44.1 kHz
Frame rate                               : 43.066 FPS (1024 SPF)
Compression mode                         : Lossy
Stream size                              : 69.0 MiB (6%)
Default                                  : Yes
Alternate group                          : 1



2c5d0a45b51f5c77d6dca3520928ab40.jpg
Category:Movies > WEB-HD
Lang:Hindi
Total Size:1.17 GB



|| Download This Movie Via Single Resumable Links Size: 1.17 GB ||

Direct-1 Google Drive | Direct-2 | Direct-3 |

Watch Online Click Here

No comments:

Post a Comment